<?xml version="1.0" standalone="no"?>
<!DOCTYPE svg PUBLIC "-//W3C//DTD SVG 1.1//EN" "http://www.w3.org/Graphics/SVG/1.1/DTD/svg11.dtd" >
<!--
2013-9-30: Created.
-->
<svg>
<metadata>
Created by iconfont
</metadata>
<defs>

<font id="iconfont" horiz-adv-x="1024" >
  <font-face
    font-family="iconfont"
    font-weight="500"
    font-stretch="normal"
    units-per-em="1024"
    ascent="896"
    descent="-128"
  />
    <missing-glyph />
    
    <glyph glyph-name="diqiu1" unicode="&#58889;" d="M504.61696 460.61568c0.0512 0.0768 0.11776 0.13824 0.16384 0.21504a28.34944 28.34944 0 0 0-0.39936 2.17088c0.08192-0.7936 0.16896-1.5872 0.23552-2.38592z m169.41056-184.9856c0.01024 0 0.01024 0.01024 0.01024 0.01536-0.0256 0.01024-0.1024 0.01024-0.11776 0.03584 0.0256-0.0256 0.08704-0.0256 0.10752-0.0512z m4.34176-0.5376c-1.0496 0.16896-3.40992-0.13824-4.34176 0.5376-0.57344-1.98144 0.29184-2.72896 4.34176-0.5376z m-165.0176 551.7056c-243.61472 0-441.09824-197.4784-441.09824-441.09312 0-243.61472 197.48352-441.10336 441.09824-441.10336 243.6096 0 441.09824 197.48864 441.09824 441.10336s-197.48864 441.09312-441.09824 441.09312z m281.74336-172.30848c-15.19616-0.4608-25.77408-0.49152-37.98528-8.91904-4.92032-3.39968-8.25856-7.90528-14.50496-9.65632-5.60128-1.57696-11.64288-0.19456-17.19296-2.07872-20.03968-6.79936-16.8704-49.72544-43.27424-43.24352-12.40576 3.04128-21.1456 17.70496-27.392 27.27424-5.49888 8.4224-15.5136 15.3856-8.75008 25.92256-3.08736-0.78848-6.3744 0.11264-9.41568-0.46592 4.22912 9.28768 18.42176 8.4736 20.78208 13.22496 5.87776 11.89888-16.18432 13.13792-22.43072 14.79168 7.53152 8.02304 11.3408-2.69824 18.76992-0.88064 7.14752 1.76128-3.7632 11.16672-8.04864 12.22144-1.54112 0.384-26.69056-6.94784-12.12928 6.07744l-53.9136 34.37568c-3.02592-12.7488 23.92064-19.98848 32.72704-24.48384-1.37216-5.26336-9.55904-12.928-15.83104-10.68032-5.89824 2.11968-3.50208 11.904-12.42112 10.91584-6.36416-14.80192 13.46048-10.47552 15.29856-19.54304 2.09408-10.33216-7.49056-5.95456-11.18208-5.77536-0.88064 0.04608-7.75168 7.15776-8.12032 1.77664-0.45056-6.4 10.96192-3.90144 11.76064-10.35776-13.28128-0.5376-20.0704 4.25984-30.87872 11.4432-12.63104 8.38144-19.10272 7.62368-34.57024 7.62368 4.62336 1.90464 10.99264 3.30752 14.9504 6.36928 2.16064 1.66912 10.63936 9.91232 11.20256 11.7504 2.39616 7.94112-0.128 7.33696-7.72608 12.53888-6.75328 4.61824-14.94016 12.90752-23.12192 14.5408-29.63968 5.91872-9.14432-26.76224-31.6416-31.26272 0.384-0.02048 0.79872-0.03584 1.13152-0.03584h-1.29024c0.05632 0.00512 0.10752 0.0256 0.15872 0.03584-5.20704 0.18944-14.96064 1.45408-18.31424-1.29536-2.36544-1.93024-2.56512-9.69728-5.21216-12.50816-4.7104-5.0176-11.72992-6.02112-17.35168-9.64096-5.48864-3.53792-17.58208-12.61056-20.80256-18.76992-11.87328-22.68672 26.752-29.72672 41.3952-36.35712 6.61504-2.9952 25.95328-7.10144 29.55264-12.1088 4.83328-6.72256-4.16256-13.02528 5.92384-17.75104 3.22048-1.50528 9.86112-1.81248 12.64128 1.3056 4.5056 5.07904-1.83296 6.22592-2.91328 12.09344-2.08896 11.29984 1.3568 6.8096 7.03488 11.008 11.58144 8.5504 8.97536 9.07264 4.80768 22.69696-1.93536 6.34368-9.23648 24.04352-2.816 28.7232 8.37632 6.10816 26.22464-3.30752 32.64512-4.096 7.47008-0.91648 11.70944-11.26912 15.77984-15.49824 2.70848-2.81088 7.54688-8.77568 12.26752-8.13056 7.5008 1.024 4.36224 7.5776 8.70912 10.60352 11.66336 8.09472 14.74048-2.89792 19.38944-13.89568 4.37248-10.32704 8.50944-14.1568 16.30208-20.78208 3.61472-3.08224 19.46112-14.08512 17.96608-20.86912-1.01376-4.56704-19.11296-11.49952-23.95648-13.0304-17.69472-5.60128-50.88768 9.17504-54.4512-18.88256 6.8608 2.56 26.38848 18.5088 32.24576 10.95168 2.67264-3.4304-2.11456-8.42752-0.98816-11.83744 3.33824-10.2144 11.2128-6.656 19.4816-5.00736-0.5632-0.34816-1.14688-0.65536-1.75104-0.93184 11.28448 5.80096 10.11712 4.59264 15.29344 13.99808 1.6896 3.072 4.1984 10.51136 6.58432 12.71296 8.20736 7.54688 9.46688 2.35008 14.55104-3.47136 1.3312-1.536 13.89568-19.62496 9.42592-18.72384-14.6176 2.92864-28.65152 2.53952-40.77056-5.4528-6.9888-4.61312-13.58848-10.83904-21.93408-13.9008-1.9968-0.73216-16.80384-2.13504-15.0528 0.38912 2.56 3.68128 11.35104 6.1184 14.8224 10.09152-9.62048 3.95776-17.6384-4.7872-25.1904-9.89696-8.01792-3.79392-9.88672-10.86464-16.71168-17.05984-2.97984-2.70336-8.62208-3.16416-11.5456-6.72256-2.83648-3.45088-3.19488-8.87808-5.87776-12.15488-1.88416-2.29376-6.72256-0.90624-8.69376-4.36736-2.56512-4.51584 2.35008-8.70912 1.26976-11.96544-1.9712-5.9136-13.21984-10.92608-17.54112-15.18592 0.57344 0.55296 1.152 1.1264 1.7152 1.70496-4.33664-4.54656-9.82016-7.88992-13.20448-13.15328 1.55136-7.42912 6.4512-25.14944 5.08416-29.22496-4.5056-13.40928-13.2608 7.296-16.81408 12.6464-12.20096 18.3808-36.58752 6.08256-53.24288 4.5568-21.30432-1.9456-42.16832-29.5936-29.02528-52.03968 6.30784-10.76224 16.91648-14.92992 29.09184-12.43648 10.83392 2.21696 14.08512 17.37216 24.28928 17.64864 18.74432 0.50176 0.41472-18.37056-1.20832-25.2928-1.50016-6.42048 2.33984-7.00928 8.93952-8.6016 4.87936-1.17248 11.78112 2.08384 16.00512-0.70144 2.6624-1.76128 2.5344-11.38176 6.1952-8.3456-7.20896-5.97504-5.52448-20.1472 1.8688-25.27232 8.19712-5.6832 17.84832-0.41984 26.42432-2.60608 16.19968-4.13184 8.46848 1.23904 22.70208 9.8304 9.6 5.78048 11.17696-1.09568 17.7408-1.12128 4.46464-0.02048 7.30112 6.42048 14.7712 4.55168 6.08768-1.54112 8.48896-6.24128 15.75936-7.3216 2.97984-0.44032 6.06208 1.12128 8.89856 0.80896 13.44-1.48992 23.73632-10.08128 34.3296-17.84832 8.7296-6.38976 14.51008-5.09952 24.70912-8.00768 7.4496-2.1248 21.1968-12.90752 20.49024-22.36928-0.12288-1.69472-6.64064-10.20928-7.75168-14.03904 1.90976-1.32096 15.16544 1.6384 19.0464 1.92-1.27488-1.4848-10.30656-7.82848-10.30656-4.45952 0-1.73056 6.38976-5.26848 7.94624-6.3744 4.7104 15.28832 12.44672 5.4528 21.75488 1.664 7.91552-3.22048 17.65888-3.39968 26.10176-5.41184 7.168-1.70496 22.96832-6.53824 28.27776-12.40064 6.38976-7.05024 1.9712-18.49856-2.75968-25.50784-6.17984-9.20064-15.50848-12.72832-19.36896-23.552-3.05152-8.57088-0.75776-17.2288-2.50368-26.74176-2.3552-12.86144-4.24448-8.35072-12.52864-16.19968-6.96832-6.60992-0.11264-5.46304-9.60512-9.68192-9.53856-4.23424-17.93024-2.9696-24.52992-13.42976 0.26112 0.65024 0.48128 1.31072 0.66048 2.00192-2.78016-3.89632-4.17792-11.8784-5.49376-14.49984-3.328-6.6816-7.92064-10.89024-13.184-16.4608-2.01728-2.12992-20.56192-27.46368-21.632-25.43104-1.3824 2.65216-16-2.6624-16.69632 1.12128 0.58368-3.1744-0.13312-2.10944 3.49696-3.9424-3.36384-20.81792-12.17024-23.92576-32.6144-24.13568 1.75616-10.00448-7.40352-8.00768-11.66848-13.3888-2.48832-3.14368-3.68128-11.97568-5.40672-16.04608-1.08032-2.54976-9.0624-12.78976-9.0624-14.8224-0.01024-1.8688 2.68288-4.608 5.21216-7.22944a389.632 389.632 0 0 0-44.04224-6.05696c2.79552 3.52256 3.46624 6.61504-5.43744 7.03488 2.38592 6.4768 7.97696 10.16832 10.34752 16.4352 1.1264 2.95424 0.19456 4.12672 1.14688 7.05536 3.25632 10.12224 1.8432 6.2976 0.00512 14.16192-4.3008 18.41664 1.53088 23.4496 6.54848 40.30976 5.15584 17.3312 4.67968 39.78752 7.98208 58.45504 1.56672 8.9344 4.13184 27.51488 1.02912 35.95776-3.49696 9.50272-18.87232 16.99328-25.91232 23.38816-9.96864 9.08288-15.26784 18.8928-22.67136 30.12608-3.75808 5.69856-8.04352 11.29472-10.97216 17.48992-6.272 13.2608 0.00512 5.37088 1.05984 13.18912 1.01376 7.56224-0.90112 14.32064 2.10432 22.25152 3.31776 8.77056 11.60704 14.23872 14.33088 23.08608 2.45248 7.87456 0.57856 17.77152-7.50592 20.39296-4.5056 1.46944-9.48224-1.92-14.00832-1.17248-6.31808 1.01888-13.4656 5.73952-18.42176 9.50272-6.92224 5.2736-9.51296 13.83424-16.88064 18.83648-6.1696 4.16768-10.55744 1.67424-17.15712 3.61984-6.88128 2.02752-11.13088 10.5216-16.68096 13.17888-8.33024 3.98336-13.02528-1.7408-21.82144-0.57856-7.4752 0.97792-18.88256 9.27232-25.87136 12.39552-14.208 6.35904-22.8608 13.37856-28.544 27.8016-4.864 12.36992-11.96032 18.13504-20.31104 28.43648-8.46336 10.43456-11.1104 19.328-24.15616 22.10816-1.53088 0.3328 3.19488-10.9568 3.68128-11.85792 4.6592-8.63232 11.65824-16.51712 17.29024-24.5504 8.28416-11.83744 4.75648-14.05952-3.67104-2.6112-9.63584 13.09696-20.81792 26.11712-29.17888 39.9872-3.15904 5.23776-2.55488 8.6272-7.76704 13.60384-5.03296 4.80768-11.62752 7.14752-16.69632 11.7248-18.24256 16.4096-21.56032 38.31296-19.4816 61.70624 0.67584 7.62368 3.4304 13.7216 2.21696 21.05344-1.00352 6.08256-4.59776 11.11552-9.08288 15.60064-1.44896 2.304-5.07904 7.98208-5.28896 8.34048-4.14208 6.88128-7.36256 13.64992-13.94688 19.29216-3.77344 3.25632-13.5424 10.8544-22.73792 17.22368 41.32352 51.53792 95.39072 92.38016 157.41952 117.73952 0.49664-3.11808 1.83296-6.23104 3.84-9.21088 5.09952-7.56736 9.9584-6.9632 19.9168-9.0624-1.06496-11.55072-14.57152-11.64288-23.71584-10.3936-10.91584 1.49504-22.39488 5.12-31.8464-4.43904 5.2224-3.13856 19.55328-15.36512 17.64864-2.59072 10.45504 0.52736 20.5568 0.83968 30.78656-0.41472 4.10112-0.50176 17.82784-5.10976 21.55008-3.00544 1.5616 0.88064 3.2256 8.58624 4.87936 10.9568-2.91328-0.01536-6.0416 1.45408-8.94464 1.1776 6.77376 8.66816 13.52192 1.8688 22.13888-2.11968-9.49248-5.76512-3.86048-19.584 5.41696-8.35584 7.62368 9.23648-1.86368 15.92832-11.54048 21.30944 9.75872 12.20608 15.77472 13.30688 24.95488-0.46592 1.5104 8.49408 8.36608 5.0944 15.53408 4.46464v2.1248c-3.15392-0.0768-6.52288 1.7408-9.64608 1.41312 7.30112 11.648 2.64192 14.30528 13.07648 18.10944 8.30976 3.02592 32.01536 0.20992 34.93888 8.01792-16.59392-3.2256-36.63872-3.99872-51.6096-11.54048-6.45632-3.2512-14.14656-13.52192-20.58752-6.84544-6.60992 6.84544 4.72576 17.85856 10.5216 21.21728h-1.38752a390.38976 390.38976 0 0 0 81.34144 8.58112c18.0224 0 35.7376-1.3312 53.12512-3.712-6.02112-3.15904-1.57184-5.29408-5.94944-8.5248-8.3712-6.15424-23.22944-11.2896-33.18784-15.1808 12.66176 0.03072 43.31008-11.87328 49.20832 5.88288l-12.25216 1.88416a107.37664 107.37664 0 0 0 25.06752 12.15488c80.61952-15.9744 152.33024-56.86272 206.88384-114.24256-0.39424 0.01536-0.78336 0.0256-1.15712 0.01536z m71.38816-154.86464c0.72704 1.55136 2.42688 2.05824 3.1232 3.33824 1.46944 2.688 1.14176 4.51072 2.95936 6.81984 1.94048 2.49344 4.56192 3.10272 6.72768 5.05344 0.8704 0.78336 1.36192 1.5104 1.76128 2.2528a387.3536 387.3536 0 0 0 15.46752-56.20736c-0.11264-0.13824-0.1792-0.34816-0.32256-0.4608-0.95232-0.74752-7.13216-1.66912-8.40192-1.71008-4.47488-0.17408-7.80288 2.79552-11.01312 5.59104-3.27168 2.8416-7.12192 6.64064-9.4464 10.3168-2.4832 3.93216-0.95232 7.96672-0.77312 12.45184 0.1536 3.77344-1.67936 9.14944-0.08192 12.55424z m5.04832-202.24512c-7.57248 6.5792-16.512 15.40096-21.89824 23.93088-5.74976 9.088-2.21184 18.44736-1.792 28.86144 0.34816 8.75008-3.92704 21.21216-0.19968 29.10208 1.70496 3.59936 5.62176 4.7872 7.22944 7.73632 3.4304 6.2464 2.66752 10.46528 6.87104 15.83616 4.51072 5.76512 10.57792 7.18336 15.60064 11.70944 5.26336 4.74112 5.12 8.47872 8.448 14.55104 2.44224 4.44416 8.17152 11.84768 13.5936 15.72352 2.944-19.28704 4.47488-39.03488 4.47488-59.12064 0-34.7648-4.62336-68.4544-13.18912-100.55168-7.30112 1.87904-13.312 7.1424-19.13856 12.22144z"  horiz-adv-x="1024" />

    
    <glyph glyph-name="zaihaiyubao" unicode="&#58984;" d="M506.8 643.3c-154.6-0.2-279.7-125.4-279.9-279.9V73h570.3V352.8c-0.2 160.4-130.1 290.3-290.4 290.5z m238.5-518.6H434.2V384h-51.8v-259.3H278.7V363.3c0.2 125.9 102.2 228 228.1 228.1 131.7-0.2 238.4-106.9 238.6-238.6v-228.1zM900.9 21v-51.8H123.1V21h777.8z m-363 674.1H486V798.8h51.9v-103.7z m-268.7-94l-62.6 77.8 40.5 32.4 62.6-77.8-40.5-32.4z m480.7-0.7l-39.3 33.8 67 77.8 39.3-33.8-67-77.8z m0 0"  horiz-adv-x="1024" />

    
    <glyph glyph-name="fenge" unicode="&#58988;" d="M426.496-25.088c-103.424 0-237.568 13.312-274.432 50.176-29.184 29.696-56.32 141.312-50.176 323.584 5.12 154.112 32.256 299.008 66.56 351.744C204.8 757.248 309.248 793.6 434.176 793.6c143.872 0 320.512-51.2 391.168-166.4C896 512 930.304 379.904 921.088 255.488c-7.168-101.376-43.52-186.368-92.672-217.088-55.808-35.328-236.544-63.488-401.92-63.488zM434.176 755.2c75.776 0 152.576-14.336 216.576-39.936 66.048-26.624 115.2-64 141.824-108.032 66.56-108.544 98.816-232.448 90.624-349.184-7.168-100.864-44.032-167.936-74.752-187.392-16.896-10.752-63.488-26.624-143.36-39.424-73.728-11.776-158.72-18.432-238.08-18.432-169.472 0-236.544 28.672-246.784 38.912-15.36 15.872-45.568 108.544-39.424 295.424 5.12 163.328 35.328 292.864 60.416 332.288 23.552 37.888 105.472 75.776 232.96 75.776m0 76.8c-131.072 0-250.88-37.888-297.984-110.592C55.296 595.968 26.624 97.28 124.928-2.048c43.008-44.032 166.912-61.952 301.568-61.952 169.984 0 357.376 28.672 422.4 69.632 117.248 73.728 175.104 371.712 9.216 642.048-76.288 124.416-259.072 184.32-423.936 184.32zM859.136 648.192c-27.136 44.544-68.096 80.384-116.736 108.544-17.408-8.704-34.816-17.408-49.664-25.088-131.584-65.536-281.088-139.776-349.184-262.144-53.248-95.232-51.712-222.72-50.176-346.112 1.024-62.976 1.536-122.368-4.608-171.52-0.512-3.584-1.024-6.656-1.536-9.728 42.496-5.12 90.112-7.168 138.752-7.168 30.72 0 62.464 1.024 93.696 2.56 6.656 60.928 5.632 125.44 4.608 188.928-1.024 84.48-2.56 188.928 20.48 230.4 33.792 60.416 159.232 122.88 250.88 168.448 36.352 17.92 70.656 35.328 101.376 52.224-10.752 24.064-23.552 47.616-37.888 70.656zM750.08 672.256c-12.8-6.656-26.112-13.312-39.936-19.968-9.728-4.608-18.944-9.728-28.672-14.336-18.944-9.728-26.624-32.768-16.896-51.712 6.656-13.312 20.48-20.992 34.304-20.992 5.632 0 11.776 1.536 17.408 4.096 9.728 4.608 19.456 9.728 28.672 14.336 13.824 6.656 27.136 13.312 40.448 19.968 18.944 9.728 26.624 32.768 16.896 51.712-10.24 18.432-33.28 26.112-52.224 16.896zM544.768 559.104c-25.6-15.872-47.104-31.232-66.56-47.104-16.384-13.312-18.944-37.376-5.632-54.272 7.68-9.216 18.432-14.336 29.696-14.336 8.704 0 16.896 3.072 24.064 8.704 16.896 13.824 36.352 27.648 58.88 41.472 17.92 11.264 23.552 34.816 11.776 52.736a37.2736 37.2736 0 0 1-52.224 12.8zM371.712 17.92c0-20.992 17.408-38.4 38.4-38.4s38.4 17.408 38.4 38.4c0 19.456-0.512 38.912-0.512 58.368l-0.512 18.944c-0.512 20.992-17.408 37.888-38.4 37.888h-0.512c-20.992-0.512-38.4-17.92-37.888-38.912l0.512-18.944c0-18.944 0.512-38.4 0.512-57.344zM386.56 347.136c-5.12-24.576-7.68-51.712-7.68-83.968 0-20.992 16.896-38.4 38.4-38.4h4.096c19.456 2.048 34.304 18.432 34.304 37.888 0 27.136 2.048 49.664 6.144 68.608 4.096 20.992-9.216 40.96-29.696 45.056-20.992 5.12-41.472-8.192-45.568-29.184z"  horiz-adv-x="1024" />

    
    <glyph glyph-name="ditu1" unicode="&#58902;" d="M753.152 165.88800000000003c-17.92 3.072-34.816-8.192-38.4-26.112-3.072-17.92 8.192-34.816 26.112-38.4 93.696-18.432 149.504-48.128 149.504-62.976 0-3.584-5.12-8.192-17.92-18.432-24.576-14.848-51.2-25.6-78.848-33.28-73.216-21.504-173.568-33.28-280.064-33.28s-208.384 11.776-280.576 33.28c-27.648 7.168-54.272 18.432-78.848 33.28-14.848 9.728-19.456 14.848-19.456 18.432 0 13.312 50.688 41.472 136.192 59.904 16.896 3.072 28.672 19.968 25.088 36.864 0 1.024-0.512 2.048-0.512 2.56-1.536 15.872-15.872 27.648-32.256 26.112-2.048 0-3.584-0.512-5.632-1.024-116.736-25.088-188.416-65.024-188.416-124.416 0-92.672 196.608-148.48 442.88-148.48s442.88 56.32 442.88 148.48c0 61.44-77.312 102.912-201.728 127.488zM263.68 420.352l221.696-356.864c7.168-14.848 25.088-20.48 39.424-13.312 5.632 3.072 10.752 7.68 13.312 13.312l221.696 356.864c89.088 136.704 50.688 320-86.016 409.6S353.792 880.64 264.704 743.936c-64-98.304-64-225.28 0-323.584h-1.024zM512 719.36c75.264 0.512 136.192-59.904 136.704-134.656 0.512-75.264-59.904-136.192-134.656-136.704S377.856 507.392 377.344 582.144v1.024c-0.512 74.752 59.904 135.68 134.656 136.192z"  horiz-adv-x="1024" />

    
    <glyph glyph-name="fenge1" unicode="&#58886;" d="M64.303027 160.15176899999994l373.080044 0L437.38307 607.849254 64.303027 607.849254 64.303027 160.15176899999994zM114.046964 558.105317l273.591145 0 0-348.208587-273.591145 0L114.046964 558.105317zM586.614883 607.849254l0-447.697485 373.081067 0L959.69595 607.849254 586.614883 607.849254zM909.953036 209.89570700000002l-273.591145 0L636.361891 558.105317l273.591145 0L909.953036 209.89570700000002zM561.742403 781.953547c0 27.470655-22.2477 49.743938-49.742914 49.743938-27.446096 0-49.743938-22.273283-49.743938-49.743938 0-18.404162 10.014074-34.461883 24.87248-43.065841L487.128031 29.113317000000052c-14.858406-8.603959-24.87248-24.662703-24.87248-43.065841 0-27.471678 22.297842-49.743938 49.743938-49.743938 27.495214 0 49.742914 22.273283 49.742914 49.743938 0 18.412348-10.000771 34.477232-24.87248 43.079144L536.869922 738.874403C551.741631 747.475292 561.742403 763.540176 561.742403 781.953547z"  horiz-adv-x="1024" />

    
    <glyph glyph-name="tudi" unicode="&#59110;" d="M970.667 172.8L768 652.8c-12.8 29.867-46.933 51.2-78.933 51.2h-352c-32 0-66.134-23.467-78.934-51.2l-202.666-480C44.8 145.067 44.8 117.333 59.733 96c12.8-21.333 38.4-32 68.267-32h770.133C928 64 953.6 76.8 966.4 96c12.8 21.333 14.933 49.067 4.267 76.8zM409.6 341.333L428.8 480h145.067l19.2-138.667H409.6z m187.733-42.666l25.6-192H375.467l25.6 192h196.266zM230.4 480H384l-19.2-138.667H170.667L230.4 480z m202.667 42.667l19.2 138.666h96l19.2-138.666h-134.4zM616.533 480H787.2c2.133 0 4.267 0 6.4 2.133l59.733-140.8h-217.6L616.533 480z m110.934 155.733L774.4 522.667H610.133l-19.2 138.666h96c17.067 0 36.267-12.8 40.534-25.6z m-430.934 0c6.4 12.8 25.6 25.6 40.534 25.6H409.6l-19.2-138.666H247.467l49.066 113.066zM93.867 119.467c-6.4 8.533-6.4 21.333 0 36.266L153.6 298.667h206.933l-25.6-192H128c-17.067 0-27.733 4.266-34.133 12.8z m836.266 0c-6.4-8.534-17.066-12.8-32-12.8h-230.4l-25.6 192H870.4l59.733-142.934c6.4-14.933 6.4-27.733 0-36.266z"  horiz-adv-x="1024" />

    
    <glyph glyph-name="biaozhu_juxing" unicode="&#58914;" d="M1024-128H0V896h1024v-1024zM113.777778-14.222222h796.444444V782.222222H113.777778v-796.444444z"  horiz-adv-x="1024" />

    
    <glyph glyph-name="biaozhu_yuanxing" unicode="&#58915;" d="M512-81.454545c-260.654545 0-465.454545 204.8-465.454545 465.454545s204.8 465.454545 465.454545 465.454545 465.454545-204.8 465.454545-465.454545-204.8-465.454545-465.454545-465.454545z m0 837.818181c-204.8 0-372.363636-167.563636-372.363636-372.363636s167.563636-372.363636 372.363636-372.363636 372.363636 167.563636 372.363636 372.363636-167.563636 372.363636-372.363636 372.363636z"  horiz-adv-x="1024" />

    
    <glyph glyph-name="meiyoushuju1" unicode="&#58890;" d="M271.872 167.936v412.16c0 30.72 18.944 53.76 39.936 53.76h412.16c20.992 0 39.936-23.552 39.936-54.272v-220.16c0-2.048 0.512-4.096 1.024-5.632l14.848 5.632v220.16c0 38.912-25.088 70.144-56.32 70.144h-412.16c-31.232 0-56.32-31.232-56.32-70.144v-418.304l16.896 6.656z m0 0v412.16c0 30.72 18.944 53.76 39.936 53.76h412.16c20.992 0 39.936-23.552 39.936-54.272v-220.16c0-2.048 0.512-4.096 1.024-5.632l14.848 5.632v220.16c0 38.912-25.088 70.144-56.32 70.144h-412.16c-31.232 0-56.32-31.232-56.32-70.144v-418.304l16.896 6.656z m686.592-72.704c-21.504 16.896-45.568 29.696-71.68 38.4-4.096 1.024-8.704-1.536-9.728-5.632-1.024-4.096 1.024-8.192 4.608-9.728 24.064-8.192 46.592-20.48 67.072-35.84 3.584-2.56 8.704-1.536 11.264 2.048 2.048 3.072 1.536 7.68-1.536 10.752z m-440.832-16.384c-37.888 0-75.264-10.24-108.032-30.208-45.568 61.44-117.248 97.28-194.048 97.28-54.272 0-107.52-18.432-150.016-52.224-3.072-3.072-3.584-8.192-0.512-11.264 2.56-3.072 7.168-3.584 10.24-1.024 39.936 31.744 89.088 48.64 140.288 48.64 74.752 0 143.36-36.352 185.344-96.768 2.56-3.584 7.168-4.608 11.264-2.048 31.232 20.992 68.096 31.744 105.472 31.744 35.84 0 69.632-9.728 99.84-27.648 3.584-2.048 8.192-1.024 10.752 2.048 13.312 17.92 29.184 34.304 47.104 47.616 3.584 3.072 4.096 8.192 1.024 11.264-2.56 3.072-7.168 3.584-10.752 1.536-17.408-12.8-32.768-28.16-46.08-45.056-31.744 16.896-66.56 26.112-101.888 26.112z m337.92-29.696c-40.96 27.648-96.256 16.896-123.904-23.552l-3.072-4.608c-2.048-3.584-1.024-8.704 3.072-11.264 3.584-2.048 8.704-1.024 11.264 3.072 8.192 14.336 21.504 25.088 36.864 31.232 22.528 8.704 47.616 5.632 67.584-7.68 3.584-2.56 8.704-1.536 11.264 2.048 1.536 3.072 0.512 8.192-3.072 10.752z m-670.208 598.016c2.048-1.536 2.048-4.608 0.512-6.144m-45.056-205.312l-18.944-20.992c-1.024-1.024-2.56-1.024-3.584 0-1.024 1.024-1.024 2.56 0 3.584l18.944 20.992c1.024 1.024 2.56 1.024 3.584 0 1.024-1.024 1.024-2.56 0-3.584z m24.576 0l-18.944-20.992c-1.024-1.024-2.56-1.024-3.584 0-1.024 1.024-1.024 2.56 0 3.584l18.944 20.992c1.024 1.024 2.56 1.024 3.584 0 0.512-1.024 1.024-2.56 0-3.584z m647.68 313.856l-38.4-43.008c-2.048-2.56-6.144-2.56-8.192-0.512-2.56 2.048-2.56 6.144-0.512 8.192l38.4 43.008c2.048 2.56 6.144 2.56 8.192 0.512 2.56-2.048 2.56-5.632 0.512-8.192z m50.688 0l-38.4-43.008c-2.048-2.56-6.144-2.56-8.192-0.512-2.56 2.048-2.56 6.144-0.512 8.192l38.4 43.008c2.048 2.56 6.144 2.56 8.192 0.512 2.56-2.048 3.072-5.632 0.512-8.192zM390.144 444.416c-17.92-0.512-32.768 13.824-33.28 31.232-0.512 17.92 13.824 32.768 31.232 33.28h1.536c17.92-0.512 31.744-15.36 31.232-33.28 0.512-16.896-13.312-30.72-30.72-31.232z m-7.68 32.256c6.144 0 10.752 4.608 10.752 10.752 0 6.144-4.608 10.752-10.752 10.752-6.144 0-10.752-4.608-10.752-10.752 0-6.144 4.608-10.752 10.752-10.752z m273.92-32.256c-17.92-0.512-32.768 13.824-33.28 31.232-0.512 17.92 13.824 32.768 31.232 33.28h1.536c17.92-0.512 31.744-15.36 31.232-33.28 0.512-16.896-13.312-30.72-30.72-31.232z m-8.192 32.256c6.144 0 10.752 4.608 10.752 10.752 0 6.144-4.608 10.752-10.752 10.752s-10.752-4.608-10.752-10.752c0-6.144 5.12-10.752 10.752-10.752zM595.968 380.928c-2.048 0-4.096 1.024-5.632 2.56-11.776 12.288-23.552 17.92-35.328 17.408-11.264-0.512-20.992-7.68-26.112-14.336-2.56-3.584-7.68-4.096-11.264-1.536-0.512 0.512-1.024 0.512-1.024 1.024-14.336 16.384-26.624 15.872-36.352 13.824-8.192-2.048-16.384-6.656-24.576-14.336-3.072-3.072-8.192-2.56-11.264 0.512-3.072 3.072-2.56 8.192 0.512 11.264 10.24 9.216 20.992 15.36 31.744 17.92 17.408 4.608 32.768 0.512 46.592-12.288 6.656 6.144 17.408 12.8 31.744 13.824 16.384 1.024 32.256-6.656 47.616-22.528 3.072-3.072 3.072-8.192 0-11.264-2.56-1.024-4.608-2.048-6.656-2.048zM765.44 97.792c-64.512 0-116.736 52.224-116.736 116.736 0 64.512 52.224 116.736 116.736 116.736 64.512 0 116.736-52.224 116.736-116.736 0-64.512-52.224-116.736-116.736-116.736z m-57.856 131.584c-8.704 0-16.384-7.168-15.872-16.384 0-8.704 7.168-15.872 15.872-15.872h118.272c8.704 0 16.384 7.168 15.872 16.384 0 8.704-7.168 15.872-15.872 15.872h-118.272z"  horiz-adv-x="1024" />

    
    <glyph glyph-name="juxing" unicode="&#58893;" d="M85.333333 615.424c32.938667 0 59.733333-26.794667 59.733334-59.733333s-26.794667-59.733333-59.733334-59.733334-59.733333 26.794667-59.733333 59.733334 26.794667 59.733333 59.733333 59.733333m0 25.6c-47.104 0-85.333333-38.229333-85.333333-85.333333s38.229333-85.333333 85.333333-85.333334 85.333333 38.229333 85.333334 85.333334-38.229333 85.333333-85.333334 85.333333zM85.333333 452.949333v-397.824 397.824m25.6 25.6h-51.2v-449.024h51.2V478.549333zM85.333333 17.066667c32.938667 0 59.733333-26.794667 59.733334-59.733334s-26.794667-59.733333-59.733334-59.733333-59.733333 26.794667-59.733333 59.733333 26.794667 59.733333 59.733333 59.733334m0 25.6c-47.104 0-85.333333-38.229333-85.333333-85.333334s38.229333-85.333333 85.333333-85.333333 85.333333 38.229333 85.333334 85.333333-38.229333 85.333333-85.333334 85.333334zM939.178667 615.424c32.938667 0 59.733333-26.794667 59.733333-59.733333s-26.794667-59.733333-59.733333-59.733334-59.733333 26.794667-59.733334 59.733334 26.794667 59.733333 59.733334 59.733333m0 25.6c-47.104 0-85.333333-38.229333-85.333334-85.333333s38.229333-85.333333 85.333334-85.333334 85.333333 38.229333 85.333333 85.333334-38.229333 85.333333-85.333333 85.333333zM939.178667 452.949333v-397.824 397.824m25.6 25.6h-51.2v-449.024h51.2V478.549333zM866.816 581.461333H157.696v-51.2h709.12v51.2zM866.816-17.408H157.696v-51.2h709.12v51.2zM939.178667 17.066667c32.938667 0 59.733333-26.794667 59.733333-59.733334s-26.794667-59.733333-59.733333-59.733333-59.733333 26.794667-59.733334 59.733333 26.794667 59.733333 59.733334 59.733334m0 25.6c-47.104 0-85.333333-38.229333-85.333334-85.333334s38.229333-85.333333 85.333334-85.333333 85.333333 38.229333 85.333333 85.333333-38.229333 85.333333-85.333333 85.333334z"  horiz-adv-x="1024" />

    
    <glyph glyph-name="tielu" unicode="&#58895;" d="M590.894545 838.981818v24.669091a32.581818 32.581818 0 0 1-32.581818 32.349091H465.268364a32.581818 32.581818 0 0 1-32.581819-32.349091v-24.669091C239.010909 802.536727 93.090909 633.437091 93.090909 430.778182 93.090909 267.729455 188.043636 126.138182 325.864727 58.181818v0.418909l44.869818 89.367273c-104.773818 51.805091-176.919273 158.999273-176.919272 282.810182 0 174.359273 142.242909 315.578182 317.998545 315.578182 175.709091 0 317.998545-141.218909 317.998546-315.578182 0-123.810909-72.145455-231.005091-176.546909-282.763637l44.869818-89.832727C836.328727 126.138182 930.909091 267.310545 930.909091 430.778182c0 202.658909-146.385455 371.758545-340.014546 408.203636zM749.661091-46.638545s-152.669091 32.116364-184.785455 40.680727c-32.116364 8.564364-34.490182 54.551273-34.490181 54.551273V304.407273c0 31.744 26.763636 38.632727 26.763636 38.632727l87.738182 27.275636V468.805818c0 26.856727-21.922909 48.826182-48.733091 48.826182H401.221818c-26.810182 0-48.733091-21.969455-48.733091-48.826182v-98.862545l87.738182-27.229091s26.763636-7.354182 26.763636-38.632727v-255.90691s-2.420364-45.986909-34.490181-54.504727c-32.116364-8.564364-184.785455-40.680727-184.785455-40.680727s-19.502545-5.306182-19.502545-14.242909v-42.728727h540.532363v42.728727c0 8.936727-19.083636 14.615273-19.083636 14.615273z"  horiz-adv-x="1024" />

    
    <glyph glyph-name="gaosugonglu" unicode="&#59009;" d="M146.285714 896h738.742857c36.571429 0 73.142857-29.257143 73.142858-65.828571l73.142857-877.714286c0-43.885714-29.257143-73.142857-65.828572-80.457143H73.142857c-43.885714 0-73.142857 29.257143-73.142857 73.142857v7.314286l73.142857 877.714286c0 36.571429 29.257143 65.828571 73.142857 65.828571zM585.142857 713.142857v-219.428571c0-21.942857-14.628571-36.571429-36.571428-36.571429h-73.142858c-21.942857 0-36.571429 14.628571-36.571428 36.571429v219.428571c0 21.942857 14.628571 36.571429 36.571428 36.571429h73.142858c21.942857 0 36.571429-14.628571 36.571428-36.571429zM585.142857 347.428571v-292.571428c0-21.942857-14.628571-36.571429-36.571428-36.571429h-73.142858c-21.942857 0-36.571429 14.628571-36.571428 36.571429v292.571428c0 21.942857 14.628571 36.571429 36.571428 36.571429h73.142858c21.942857 0 36.571429-14.628571 36.571428-36.571429z"  horiz-adv-x="1031" />

    
    <glyph glyph-name="ditu2" unicode="&#59196;" d="M865.638199 350.612662l33.326524 262.720038L659.962466 703.946787 373.159758 567.113434l-249.827296 105.452904 34.907709-274.883003-0.608148-5.473334-0.486519 0.12163-4.013778-25.542226 1.459556-0.243259L124.792018 116.353961l106.669201-19.947262v-0.12163l4.865186-0.729777L390.187908 66.485806l270.747595 51.57097 238.880627-55.09823-34.177931 287.654116zM661.057133 675.971968l209.689511-79.545789-14.595557-114.818387-211.027438 53.395415L658.138021 674.634042l2.919112 1.337926z m-26.758523-278.775151l-0.973037 9.730372 10.946668 117.980757 210.054401-53.152156 1.216297 4.865186-13.257632-104.479867-203.608029 25.785486-4.378668-0.729778z m-25.663855-3.892149L481.653403 374.208813c-6.81126 19.339114-19.339114 36.002376-35.637487 47.800452 16.663262 26.515263 31.623708 77.964604 35.394228 91.465494l137.441501 17.757929-11.554816-124.305499 1.337926-13.622521zM387.025537 260.485093c-44.394821 0-80.518826 36.124005-80.518826 80.518827s36.124005 80.518826 80.518826 80.518826 80.518826-36.124005 80.518827-80.518826-36.124005-80.518826-80.518827-80.518827z m243.989073 401.134577l-11.189928-120.291721h-0.121629l-146.077207-18.852596-0.851407-3.16237c-0.12163-0.729778-17.14978-63.369046-35.029339-91.830384-11.554816 6.81126-24.569189 11.311557-38.434968 13.014372l-11.798076 104.723126 243.502554 116.399573z m-257.733223-221.365958c-38.556598-5.351704-70.301936-32.596745-81.856752-68.84238l-108.250386 16.784891 1.094667 9.487112-11.554817 90.857347c35.880746 2.432593 62.760898 14.109039 80.032308 34.907709 15.568595 18.730966 20.068892 40.989191 20.920299 57.530823l87.816606-37.097043 11.798075-103.628459zM154.712911 631.333888l109.101794-46.097637C263.571446 570.032545 260.044186 547.89595 245.205369 529.894762c-15.568595-18.730966-40.259413-29.191115-73.707566-31.380449L154.712911 631.333888zM153.253356 137.274261l26.880152 225.379736 106.79083-16.541632c-0.12163-1.702815-0.243259-3.40563-0.243259-5.108445 0-23.474522 8.149186-45.002969 21.771706-62.15275L252.989666 234.334719 235.474997 121.827295 153.253356 137.274261zM245.205369 120.002851l16.906521 108.858534 52.787267 42.327117c16.176743-16.784891 38.07008-27.853189 62.639268-30.164152l-15.082076-143.036465L245.205369 120.002851z m144.982539-27.245041l-2.310963 0.486518 15.690224 148.753059c47.557192 7.905927 83.924457 49.260007 83.924457 98.884903 0 2.675852-0.243259 5.351704-0.364889 7.905927l124.06224 18.730966 10.33852-105.817793c-54.490082-2.554223-95.114384-19.339114-120.778239-50.233045-29.920893-36.124005-31.258819-81.005345-29.677634-103.26357l-80.883716-15.446965z m90.735717 17.27141c-1.216296 21.163559 0.608148 62.517639 27.4883 95.114384 23.839411 28.826226 62.274379 44.273192 114.08861 46.705784l10.703408-110.07483 25.663856 2.554222-22.258225 227.082552 2.189333 0.364888 200.08077-25.298966 0.486519 3.892149 30.285782-253.962704L740.238033 126.327592l4.986816 0.486519-16.420003 159.334838 83.559568-9.973631 1.216296 9.852001-95.844162 11.433187L735.372847 127.422259l-73.829196 17.028151-180.620026-34.42119zM436.163915 340.88229c0-27.123411-22.014966-49.138377-49.138378-49.138377-27.123411 0-49.138377 22.014966-49.138377 49.138377 0 27.123411 22.014966 49.138377 49.138377 49.138378 27.245041 0 49.138377-21.893337 49.138378-49.138378z m0 0"  horiz-adv-x="1024" />

    
    <glyph glyph-name="yuanzhui" unicode="&#59041;" d="M119.962043-18.445623a392.966788 107.17276 0 1 1 785.933575 0 392.966788 107.17276 0 1 1-785.933575 0ZM512.023816 88.727137c191.148572 0 350.335845-37.248488 385.821937-86.547958L512.023816 889.998325l-385.821937-887.819146c35.438459 49.347102 194.673365 86.547958 385.821937 86.547958zM119.48572-13.777654l-0.428691-1.000279h0.333426c0.047632 0.381059 0.047632 0.714485 0.095265 1.000279zM904.990604-14.7303l-0.428691 1.000279v-1.000279z"  horiz-adv-x="1024" />

    
    <glyph glyph-name="tuceng1" unicode="&#59192;" d="M92.002834 565.829516l418.667296-181.950413c6.407556-2.780638 13.78229-2.780638 20.068949 0.120897l404.038725 182.796694c18.980874 8.583707 19.58536 35.302007 0.967178 44.731995L549.357261 807.140496c-6.649351 3.385124-14.507674 3.626919-21.398819 0.483589L91.640142 611.165998c-19.58536-8.825502-19.464463-36.752774 0.362692-45.336482zM510.549233 96.627155L215.318064 225.020071c-6.407556 2.780638-13.661393 2.780638-20.068949-0.120897l-103.608973-46.666352c-19.58536-8.825502-19.464463-36.752774 0.241794-45.336482l418.667297-181.950413c6.407556-2.780638 13.78229-2.780638 20.068949 0.120897l404.038725 182.796694c18.980874 8.583707 19.58536 35.302007 0.967178 44.731996l-95.26706 48.238016c-6.649351 3.385124-14.628571 3.506021-21.39882 0.483589L530.739079 96.868949c-6.407556-2.901535-13.661393-3.022432-20.189846-0.241794z m10.155371-4.352303M510.549233 302.51523L215.318064 430.787249c-6.407556 2.780638-13.661393 2.780638-20.068949-0.120897l-103.608973-46.666352c-19.58536-8.825502-19.464463-36.752774 0.241794-45.336482l418.667297-181.950413c6.407556-2.780638 13.78229-2.780638 20.068949 0.120897l404.038725 182.796695c18.980874 8.583707 19.58536 35.302007 0.967178 44.731995l-95.26706 48.238016c-6.649351 3.385124-14.628571 3.506021-21.39882 0.48359L530.739079 302.636128c-6.407556-2.901535-13.661393-2.901535-20.189846-0.120898z m10.155371-4.473199"  horiz-adv-x="1024" />

    
    <glyph glyph-name="duobianxing" unicode="&#58966;" d="M459.211429 857.84l529.794285-270.262857-92.994285-588.034286-587.302858-93.131428L38.742857 436.88 459.211429 857.84M453.165714 896l-452.571428-453.085714L291.165714-128l632.125715 100.24 100.114285 632.868571L453.165714 896z"  horiz-adv-x="1024" />

    
    <glyph glyph-name="gaowen" unicode="&#58892;" d="M596.881 78.43799999999999c23.8592 45.8752 39.7312 109.568 32.9728 197.325 0 0 144.794-105.677 13.1072-303.718 0 0 209.613-55.0912 267.776 202.445 52.5312 233.37-96.5632 369.766-206.336 382.976 0 0 83.456-74.752 43.8272-158.413 0 0-171.008 101.171-166.707 330.035 0 0-32.768-20.8896-62.976-61.0304v-381.85c50.176-55.296 78.336-128 78.336-205.517v-2.2528ZM428.638 245.76V768C428.638 838.656 373.137 896 304.734 896 236.228 896 180.83 838.656 180.625 768V245.76C131.268 206.13099999999997 102.391 145.30600000000004 102.391 80.79399999999998 102.391-34.509000000000014 193.118-128 304.631-128c111.616 0 202.342 93.5936 202.342 208.691 0 64.8192-28.9792 125.542-78.336 164.966Zm-123.904-323.584c-84.7872 0-153.702 71.168-153.702 158.72 0 52.6336 25.2928 101.786 67.584 131.379a25.2928 25.2928 0 0 1 10.6496 20.6848V768c0 43.008 33.792 77.824 75.3664 77.824 41.6768 0 75.3664-34.816 75.4688-77.824v-535.142c0-8.2944 3.9936-16.0768 10.6496-20.6848 42.2912-29.4912 67.584-78.848 67.584-131.482 0-87.4496-68.9152-158.515-153.6-158.515Zm28.5696 836.301a26.112 26.112 0 0 1-25.6 26.4192 25.088 25.088 0 0 1-18.1248-7.7824 26.7264 26.7264 0 0 1-7.4752-18.6368V187.39200000000005c-48.128-14.336-78.336-63.1808-70.656-114.176a100.557 100.557 0 0 1 100.557-87.2448 100.864 100.864 0 0 1 96.768 91.7504 102.605 102.605 0 0 1-75.5712 110.899V758.374Z"  horiz-adv-x="1024" />

    
    <glyph glyph-name="jichangx" unicode="&#58913;" d="M620.416 696.64l-29.376-8.64 12.32 12.288 17.056-3.648z m112.512 133.216a96 96 0 0 0 48.448 26.144l91.648 18.944a106.112 106.112 0 0 0 125.408-125.44l-18.944-91.616a96 96 0 0 0-26.144-48.448l-128.96-128.992 98.24-382.848a64 64 0 0 0-16.736-61.184l-88.8-88.768a64 64 0 0 0-102.592 16.864l-134.4 271.648-90.496-90.464 16.704-122.784a64 64 0 0 0-18.144-53.856l-67.008-67.008a64 64 0 0 0-103.648 19.04L232.96 109.44l-188.352 84.576a64 64 0 0 0-19.04 103.648l67.008 66.976a64 64 0 0 0 53.856 18.176l122.784-16.704 89.536 89.568-246.304 113.6a64 64 0 0 0-18.464 103.36L182.4 761.088a64 64 0 0 0 58.752 17.28l362.208-78.08 129.568 129.6z m153.056-17.6l-91.648-18.944a32 32 0 0 1-16.16-8.704l-154.24-154.24L227.68 715.84 139.2 627.424l329.696-152.064-176.896-176.896-154.24 20.96-66.976-66.976 210.56-94.56 94.56-210.56 66.976 67.008-20.96 154.208 176 176 173.92-351.616 88.8 88.8-107.328 418.208 154.784 154.784a32 32 0 0 1 8.704 16.16l18.944 91.648a42.112 42.112 0 0 1-49.76 49.76z"  horiz-adv-x="1024" />

    
    <glyph glyph-name="dapingfuwu" unicode="&#58981;" d="M947.2 128H76.8c-42.496 0-76.8 34.304-76.8 76.8V716.8c0 42.496 34.304 76.8 76.8 76.8h870.4c42.496 0 76.8-34.304 76.8-76.8v-512c0-42.496-34.304-76.8-76.8-76.8zM76.8 742.4c-14.336 0-25.6-11.264-25.6-25.6v-512c0-14.336 11.264-25.6 25.6-25.6h870.4c14.336 0 25.6 11.264 25.6 25.6V716.8c0 14.336-11.264 25.6-25.6 25.6H76.8zM716.8-25.6H307.2c-14.336 0-25.6 11.264-25.6 25.6s11.264 25.6 25.6 25.6h409.6c14.336 0 25.6-11.264 25.6-25.6s-11.264-25.6-25.6-25.6zM998.4 550.4H25.6c-7.168 0-12.8 5.632-12.8 12.8s5.632 12.8 12.8 12.8h972.8c7.168 0 12.8-5.632 12.8-12.8s-5.632-12.8-12.8-12.8zM998.4 345.6H25.6c-7.168 0-12.8 5.632-12.8 12.8s5.632 12.8 12.8 12.8h972.8c7.168 0 12.8-5.632 12.8-12.8s-5.632-12.8-12.8-12.8zM665.6 140.8c-7.168 0-12.8 5.632-12.8 12.8V768c0 7.168 5.632 12.8 12.8 12.8s12.8-5.632 12.8-12.8v-614.4c0-7.168-5.632-12.8-12.8-12.8zM358.4 140.8c-7.168 0-12.8 5.632-12.8 12.8V768c0 7.168 5.632 12.8 12.8 12.8s12.8-5.632 12.8-12.8v-614.4c0-7.168-5.632-12.8-12.8-12.8z"  horiz-adv-x="1024" />

    
    <glyph glyph-name="tuceng" unicode="&#59062;" d="M878.162 679.67H770.304v75.817c0 43.397-35.359 78.571-78.96 78.571H151.797c-43.612 0-78.96-35.174-78.96-78.571v-588.575c0-43.387 35.348-78.572 78.95-78.572h107.868v-75.735c0-43.397 35.358-78.571 78.96-78.571h539.546c43.612 0 78.96 35.174 78.96 78.571V601.088c0 43.397-35.348 78.582-78.96 78.582z m-7.742-594.002c-0.04-32.574-26.562-58.972-59.29-59.013H405.648a59.453 59.453 0 0 0-41.932 17.285 58.86 58.86 0 0 0-17.367 41.728v2.662h344.985c43.602 0 78.95 35.185 78.95 78.572V586.957h40.827c32.697 0 59.3-26.47 59.3-59.003v-442.276z"  horiz-adv-x="1024" />

    
    <glyph glyph-name="huabanfuben" unicode="&#58899;" d="M589.44 247.68v-188.8h268.8V721.6h-268.8v-189.76H540.8V768h365.76v-757.44H540.8v237.12zM672 367.68h131.2v44.8H672v94.08l-131.2-116.16 131.2-116.48zM432.96 247.68v-188.8h-268.8V721.6h268.8v-189.76h48.64V768H115.84v-757.44h365.76v237.12zM352 412.48H220.48v-44.8H352v-93.76l129.92 116.48L352 506.56z"  horiz-adv-x="1024" />

    
    <glyph glyph-name="ChangeT" unicode="&#59140;" d="M924.559 206.534l0.088 0.205C948.768 262.82000000000005 961 322.45799999999997 961 384c0 60.605-11.874 119.409-35.293 174.776-22.615 53.469-54.987 101.485-96.216 142.714-41.229 41.229-89.245 73.601-142.714 96.217C631.409 821.126 572.605 833 512 833c-119.926 0-233.54-47.487-317.49-131.509l-21.213 21.213c-7.778 7.778-15.161 5.2-16.406-5.729l-8.201-71.98c-1.245-10.929 6.679-18.853 17.607-17.607l71.98 8.2c10.929 1.246 13.507 8.628 5.729 16.406l-21.212 21.213C299.271 749.7429999999999 402.763 793 512 793c225.523 0 409-183.477 409-409 0-56.153-11.166-110.545-33.188-161.666l0.001-0.001a19.926 19.926 0 0 1-1.633-7.912c0-11.046 8.954-20 20-20 8.234 0 15.3 4.979 18.367 12.088l0.001-0.001 0.011 0.026zM857.702 140.61300000000006l-71.98-8.201c-10.929-1.245-13.507-8.628-5.729-16.406l21.216-21.215C724.724 18.278999999999996 621.111-25 512-25c-225.523 0-409 183.477-409 409 0 55.724 11.002 109.732 32.7 160.526a19.93 19.93 0 0 1 1.612 7.869c0 11.046-8.955 20-20 20-8.32 0-15.45-5.083-18.463-12.311C75.063 504.34 63 445.098 63 384c0-60.605 11.875-119.409 35.293-174.777 22.615-53.469 54.988-101.484 96.217-142.714 41.229-41.229 89.244-73.601 142.713-96.216C392.592-53.125999999999976 451.395-65 512-65c119.787 0 233.534 47.512 317.492 131.507l21.211-21.211c7.778-7.778 15.161-5.2 16.406 5.729l8.2 71.981c1.246 10.929-6.678 18.852-17.607 17.607zM564.79 199c6.458 0 12.53 2.515 17.097 7.081l108.032 108.032A24.026 24.026 0 0 1 697 331.211a24.025 24.025 0 0 1-7.081 17.096L491.555 546.6700000000001a7.958 7.958 0 0 1-5.624 2.33h-0.007l-130.871-0.105a7.954 7.954 0 0 1-7.948-7.948L347 410.075a7.947 7.947 0 0 1 2.33-5.63l198.362-198.363c4.568-4.567 10.64-7.083 17.098-7.082zM450.12 445.879c-6.248-6.248-14.438-9.372-22.627-9.372-8.189 0-16.379 3.124-22.627 9.373-12.497 12.496-12.497 32.758 0 45.254 6.248 6.249 14.438 9.373 22.627 9.373 8.189 0 16.38-3.124 22.628-9.373 12.496-12.496 12.496-32.758-0.001-45.255z m21.734-100.93c-6.249 6.249-6.248 16.38 0 22.628l56.569 56.568c6.248 6.249 16.379 6.249 22.627 0 6.249-6.249 6.249-16.379 0-22.627l-56.568-56.569c-6.249-6.248-16.379-6.248-22.628 0z m56.569-56.568c-6.249 6.249-6.248 16.379 0 22.628l56.568 56.568c6.249 6.249 16.379 6.249 22.628 0 6.248-6.249 6.248-16.379 0-22.628l-56.569-56.568c-6.248-6.248-16.379-6.248-22.627 0z"  horiz-adv-x="1024" />

    
    <glyph glyph-name="mdp-o-union-2" unicode="&#58887;" d="M537 174.80000000999996L537-54.5l-50 0 0 229.2L349.4 37.10000001000003l-35.4 35.4 162.6 162.6 35.4 35.4 35.4-35.4L710 72.50000001000001l-35.4-35.4L537 174.80000000999996zM152 32.60000000000002l0 266.8 720 0L872 32.60000000000002l50 0 0 316.8L102 349.4 102 32.60000000000002l50 0z m335 560.59999999l-137.60000001 137.60000001-35.39999999-35.30000001 162.6-162.6 35.4-35.4 35.4 35.4L710 695.49999999l-35.4 35.4L537 593.1999999899999l0 229.20000001-50 0L487 593.1999999899999zM152 468.5l0 266.8-50 0L102 418.5l820 0 0 316.8-50 0L872 468.5 152 468.5z"  horiz-adv-x="1024" />

    
    <glyph glyph-name="icon-" unicode="&#58936;" d="M268.8 732.8a243.2 134.4 0 1 1 486.4 0 243.2 134.4 0 1 1-486.4 0ZM512 585.6c-143.36 0-256 64-256 147.2S368.64 880 512 880s256-64 256-147.2-112.64-147.2-256-147.2zM512 855.04c-124.8 0-230.4-56.32-230.4-122.24s105.6-121.6 230.4-121.6 230.4 55.68 230.4 121.6S640 855.04 512 855.04zM512 598.4c-134.4 0-243.2 60.16-243.2 134.4v-697.6c0-74.24 108.8-135.04 243.2-135.04s243.2 64 243.2 135.04V732.8c0-74.24-108.8-134.4-243.2-134.4zM512-112c-143.36 0-256 64-256 147.2V732.8a12.8 12.8 0 0 0 25.6 0c0-64 105.6-121.6 230.4-121.6s230.4 55.68 230.4 121.6a12.8 12.8 0 1 0 25.6 0v-697.6c0-82.56-112.64-147.2-256-147.2zM281.6 668.16v-632.96c0-64 105.6-122.24 230.4-122.24s230.4 56.32 230.4 122.24V668.16A305.92 305.92 0 0 0 512 585.6a305.92 305.92 0 0 0-230.4 82.56z"  horiz-adv-x="1024" />

    
    <glyph glyph-name="see8" unicode="&#58911;" d="M704-21.120000000000005a448 448 0 0 0-215.04 55.68 632.96 632.96 0 0 0-74.24 50.56c-12.8 10.88-23.68 21.76-33.92 32A448 448 0 0 0 704 872.32c256 0 448-178.56 448-414.72 0-51.2-10.88-176.64-97.92-210.56a323.84 323.84 0 0 0-161.92-8.32c-64 6.4-108.16 10.24-128-23.68-8.32-16.64 0-44.8 12.8-72.32a256 256 0 0 0 19.2-78.72A88.32 88.32 0 0 0 704-21.120000000000005zM704 832a404.48 404.48 0 0 1-405.76-406.4 400 400 0 0 1 110.72-278.4l30.08-30.08a532.48 532.48 0 0 1 67.84-46.72 419.2 419.2 0 0 1 195.84-51.2 43.52 43.52 0 0 1 48.64 42.88 306.56 306.56 0 0 1-14.72 64 136.32 136.32 0 0 0-10.24 103.68c29.44 64 99.84 53.76 167.68 47.36a300.16 300.16 0 0 1 140.16 6.4c64 27.52 72.32 138.24 72.32 172.16C1106.56 672.64 936.96 832 704 832z m0 0M405.12 372.48a64 64 0 1 0 64 64 64 64 0 0 0-64-64z m0 85.12a21.12 21.12 0 1 1 0-42.24 21.12 21.12 0 0 1 0 42.24z m116.48 85.12a74.88 74.88 0 1 0 74.88 74.24 74.88 74.88 0 0 0-74.88-74.24z m0 106.24a32.64 32.64 0 0 1-31.36-32 32 32 0 1 1 64 0 32.64 32.64 0 0 1-32 32z m245.12-64a85.12 85.12 0 1 0 85.12 85.12A85.76 85.76 0 0 0 768 584.96z m0 128a42.88 42.88 0 1 1 42.24-42.88 42.88 42.88 0 0 1-40.96 42.88z m180.48-297.6a96 96 0 0 0 0 192 96 96 0 1 0 0-192z m0 148.48a53.12 53.12 0 1 1 53.12-53.12 52.48 52.48 0 0 1-53.12 53.12z m0 0"  horiz-adv-x="1344" />

    
    <glyph glyph-name="python" unicode="&#59027;" d="M844.8 896H179.2C83.2 896 0 812.8 0 716.8v-659.2C0-44.8 83.2-128 179.2-128h659.2c102.4 0 179.2 83.2 179.2 179.2V716.8C1024 812.8 940.8 896 844.8 896z m108.8-844.8c0-64-51.2-108.8-108.8-108.8H179.2c-64 0-108.8 51.2-108.8 108.8V716.8c0 64 51.2 108.8 108.8 108.8h659.2c64 0 108.8-51.2 108.8-108.8v-665.6zM364.8 652.8H204.8v-416h57.6V403.2h102.4c44.8 0 76.8 12.8 102.4 32 25.6 25.6 38.4 51.2 38.4 89.6 0 38.4-12.8 70.4-38.4 89.6-25.6 25.6-57.6 38.4-102.4 38.4z m64-185.6c-12.8-12.8-38.4-19.2-64-19.2H262.4V608h102.4c25.6 0 51.2-6.4 64-25.6s19.2-32 19.2-57.6-6.4-38.4-19.2-57.6zM678.4 313.6l-12.8 38.4-64 192h-64l115.2-300.8-12.8-32-19.2-38.4c-6.4-12.8-19.2-12.8-32-12.8h-25.6l-6.4-44.8h38.4c25.6 0 44.8 6.4 57.6 25.6 12.8 12.8 25.6 32 32 51.2l128 358.4h-64l-70.4-236.8z"  horiz-adv-x="1024" />

    
    <glyph glyph-name="jixue" unicode="&#59040;" d="M511.524016 895.997363a43.548404 43.548404 0 0 1-30.823435-12.395307 42.856113 42.856113 0 0 1-12.790901-29.999279v-110.403939l-49.185631 47.603251a44.998918 44.998918 0 0 1-30.790469 12.395307 43.548404 43.548404 0 0 1-30.790468-12.395307 41.768227 41.768227 0 0 1-1.186785-59.339233l1.186785-1.186784L467.942646 622.377566v-164.402641l-146.007479 82.415601L281.122961 687.980385a43.416539 43.416539 0 0 1-30.790469 31.186064 44.471458 44.471458 0 0 1-42.856112-11.208522 41.933058 41.933058 0 0 1-10.812927-41.998991l17.999567-65.207223-97.9427 54.855824a44.471458 44.471458 0 0 1-57.987617-16.417188 42.130855 42.130855 0 0 1 14.406247-57.196427L171.114616 526.775469l-67.185198-17.603972a42.559416 42.559416 0 0 1-30.790468-52.416323 43.647302 43.647302 0 0 1 53.603107-29.999279l151.644706 39.559489 145.611884-82.415601-146.007479-82.415602-151.644706 39.559489a44.075864 44.075864 0 0 1-51.987761-30.790469 43.020944 43.020944 0 0 1 29.208089-51.987761l67.185198-17.603972L72.743355 186.399036a42.493484 42.493484 0 0 1 21.592887-79.613471 48.559272 48.559272 0 0 1 21.988483 5.604261l98.008633 55.053621-17.999568-65.207223a41.108902 41.108902 0 0 1 10.746995-41.834159 44.009931 44.009931 0 0 1 43.185775-11.208522 42.856113 42.856113 0 0 1 30.790469 31.186063l40.812205 147.589859 146.00748 82.415601v-171.589282l-110.733602-107.997403a41.702294 41.702294 0 0 1-9.197581-46.416467 44.240695 44.240695 0 0 1 71.207079-14.010652l49.185631 47.998846v-103.184333a43.614336 43.614336 0 0 1 87.195706 0v103.184333l49.185631-47.998846a44.438492 44.438492 0 0 1 61.613903 0 41.405598 41.405598 0 0 1 0.79119 59.339233l-0.79119 0.791189-110.799534 107.898506v171.589281l152.40293-86.008921 40.812206-147.589859a42.625349 42.625349 0 0 1 30.790468-31.614624 44.009931 44.009931 0 0 1 43.185775 11.208521 41.834159 41.834159 0 0 1 10.384366 42.394586l-17.999567 65.602818 91.613182-51.592166a44.471458 44.471458 0 0 1 57.987617 16.48312 42.130855 42.130855 0 0 1-14.406247 57.196427l-91.613182 51.592167 66.789603 17.603972a43.218741 43.218741 0 0 1 30.790469 29.999279 42.493484 42.493484 0 0 1-11.208522 41.207801 44.702222 44.702222 0 0 1-42.394585 11.208521l-151.644707-39.559488-152.007335 86.008921 152.40293 86.008922 151.644707-39.559489a44.306627 44.306627 0 0 1 53.603107 29.999279 42.856113 42.856113 0 0 1-30.790469 52.416322l-67.185198 17.603973 91.613182 51.592166a41.966024 41.966024 0 0 1 22.021449 36.889223 42.427552 42.427552 0 0 1-21.988483 37.18592 45.295614 45.295614 0 0 1-44.009931 0L815.143091 604.410965l17.999567 65.207224a42.460518 42.460518 0 0 1-31.614624 50.405382 44.37256 44.37256 0 0 1-53.207512-28.383933l-40.416611-147.589859-152.369964-86.041888V622.377566l110.799534 107.997404a41.768227 41.768227 0 0 1 1.186785 59.339233l-1.186785 1.186785a44.438492 44.438492 0 0 1-62.009498 0l-49.185631-48.097745V853.14125a42.856113 42.856113 0 0 1-12.790901 29.999279A42.295687 42.295687 0 0 1 511.524016 895.997363"  horiz-adv-x="1024" />

    
    <glyph glyph-name="yuanbiaozhu" unicode="&#58955;" d="M512 25.134545a335.127273 335.127273 0 1 0 335.127273 335.127273 335.592727 335.592727 0 0 0-335.127273-335.127273z m0 605.09091a269.963636 269.963636 0 1 1 269.963636-269.963637 269.963636 269.963636 0 0 1-269.963636 269.963637z"  horiz-adv-x="1024" />

    
    <glyph glyph-name="diqiu" unicode="&#58896;" d="M512 832C265 832 64 630.9 64 383.8 64 136.9 265-64 512-64s448 200.9 448 447.8C960 630.9 759 832 512 832z m-68.9-66.2c-38.2-35-86.2-89.7-121.1-165.9-42.1 20.5-70.4 43.4-85.4 57.3 56.2 56.5 128.8 94.5 206.5 108.6zM208.7 626.1c17.1-16.1 49.6-42.6 97.4-65.5-17.6-49.1-27.4-101.5-29.4-155.9H124.4c4.3 81.3 33.3 157.7 84.3 221.4z m-84.3-262.9h152.3c2-54.3 11.9-106.8 29.4-155.9-47.8-22.9-80.4-49.5-97.4-65.3-51 63.5-80 139.9-84.3 221.2z m112.2-252.5c14.9 13.9 43.1 36.7 85.4 57.3 34.9-76.3 82.8-130.9 121.1-165.8-77.7 14.1-150.3 52-206.5 108.5z m254.6-94.4c-34.8 28.6-90.8 84.2-130 168.3 40.7 14.8 84.4 23.5 130 25.5v-193.8z m0 235.5c-51.5-2-100.5-11.5-146-28.2-15.9 44.2-24.9 91.1-26.9 139.6h172.9v-111.4z m0 152.9H318.3c2 48.6 11 95.5 26.9 139.5 45.5-16.6 94.6-26 146-27.9v-111.6z m0 153.2c-45.8 2.1-89.4 10.6-130 25.4 39.1 83.9 95.2 139.7 130 168.4v-193.8z m408.4-153.2H747.4c-2.1 54.6-11.9 106.9-29.5 155.9 47.8 22.9 80.3 49.4 97.5 65.5 50.8-63.7 79.8-140 84.2-221.4zM787.4 657.3c-14.9-13.9-43.3-36.8-85.5-57.3-34.9 76.2-82.8 130.9-121 165.9 77.8-14.2 150.4-52.2 206.5-108.6z m-254.6 94.4c34.7-28.8 90.9-84.5 130-168.4-40.7-14.8-84.3-23.3-130-25.4V751.7z m0-235.4c51.4 1.9 100.4 11.3 146 27.9 15.9-44.3 24.9-91.1 26.9-139.5H532.8V516.3z m0-153.1h172.9c-2-48.3-11-95.3-26.9-139.6-45.5 16.7-94.5 26.2-146 28.2V363.2z m0-346.9V210.1c45.6-2 89.2-10.6 130-25.5-39.2-84.1-95.3-139.7-130-168.3z m48.1-14c38.2 34.9 86.1 89.5 121 165.8 42.3-20.7 70.6-43.6 85.5-57.3-56.2-56.6-128.8-94.5-206.5-108.5zM815.3 142c-17.1 15.8-49.6 42.3-97.5 65.3 17.6 49.1 27.4 101.4 29.5 155.9h152.2c-4.3-81.3-33.3-157.7-84.2-221.2z"  horiz-adv-x="1024" />

    
    <glyph glyph-name="config" unicode="&#58881;" d="M787.333831 307.053907a75.189984 75.189984 0 0 1-75.093984-75.092984 75.189984 75.189984 0 0 1 75.093984-75.093984 75.165984 75.165984 0 0 1 75.067984 75.093984 75.165984 75.165984 0 0 1-75.067984 75.092984m0-222.841953a147.919968 147.919968 0 0 0-147.748968 147.748969c0 81.455982 66.291986 147.747968 147.748968 147.747968 81.431983 0 147.747968-66.291986 147.747968-147.747968 0-81.480982-66.315986-147.748968-147.747968-147.748969m89.452981-102.106978c0.342-0.244 1.317-0.585 2.315999-0.585h0.122l71.484985 39.496992c-1.706 4.022999-9.605998 23.478995-9.605998 43.739991a113.858976 113.858976 0 0 0 107.739977 113.613975c0.853 4.729999 5.557999 31.524993 5.557998 51.639989s-4.704999 46.88399-5.558998 51.637989a113.858976 113.858976 0 0 0-107.738977 113.565976c0 20.357996 7.923998 39.813991 9.605998 43.81299l-70.313985 39.057992-0.293 0.025a5.339999 5.339999 0 0 1-2.706-0.732 196.753958 196.753958 0 0 0-26.014994-21.819995c-21.698995-15.238997-42.153991-22.967995-60.951987-22.967995-18.919996 0-39.594991 7.874998-61.390987 23.405995a194.705958 194.705958 0 0 0-26.160994 22.283995 5.777999 5.777999 0 0 1-2.729999 0.707h-0.245l-72.824985-40.032992c1.706-4.046999 9.580998-23.479995 9.580998-43.73999A113.858976 113.858976 0 0 0 528.895886 281.649912c-0.854-4.729999-5.509999-31.524993-5.509998-51.638989s4.655999-46.90899 5.533998-51.662989a113.858976 113.858976 0 0 0 107.763977-113.589975c0-20.334996-7.972998-39.863991-9.679998-43.788991l68.973985-38.545992h0.146c1.024 0 1.95 0.365 2.317 0.585a200.849957 200.849957 0 0 0 26.428994 23.161995c22.088995 16.188997 43.079991 24.429995 62.414987 24.429995 19.552996 0 40.715991-8.387998 62.950986-24.917995 14.920997-11.068998 25.258995-22.185995 26.550995-23.575995m22.673995-108.397976c-13.774997 0.025-27.135994 5.704999-35.765993 15.213996-11.775997 12.896997-49.005989 46.44599-79.530982 46.44599-30.280993 0-68.119985-33.767993-78.993984-45.54399-8.606998-9.386998-21.869995-14.969997-35.498992-14.969997-6.484999 0-12.604997 1.243-18.187996 3.706l-0.975 0.414-92.69698 51.833988-0.926 0.683a44.46999 44.46999 0 0 0-14.920996 53.735989c0.049 0.146 8.532998 19.699996 8.532998 37.594992a98.376979 98.376979 0 0 1-98.254979 98.254978h-3.900999c-15.505997 0-28.159994 13.799997-32.182993 35.108993-0.341 1.706-7.923998 42.178991-7.923999 74.044984 0 31.913993 7.557998 72.361984 7.899999 74.117984 4.119999 21.576995 16.992996 35.449992 32.816993 35.083993h3.266999a98.400979 98.400979 0 0 1 98.279979 98.303978c0 17.846996-8.484998 37.399992-8.558998 37.619992a44.34899 44.34899 0 0 0 15.067996 53.661989l0.95 0.658 97.840979 53.759988 1.024 0.415c5.485999 2.364999 11.507998 3.534999 17.895996 3.534999 13.604997 0 26.891994-5.436999 35.595992-14.628997 11.580998-12.116997 48.17699-43.641991 77.774984-43.64199 29.354994 0 65.755986 30.914993 77.287983 42.812991 8.654998 8.996998 21.844995 14.335997 35.302992 14.335997 6.509999 0 12.653997-1.219 18.285997-3.657l0.974999-0.414 94.47698-52.516988 0.95-0.658c16.895996-11.751997 23.332995-34.889993 14.945997-53.735989-0.049-0.146-8.532998-19.699996-8.532999-37.545992a98.400979 98.400979 0 0 1 98.254979-98.279978h3.291c15.774997 0.341 28.719994-13.506997 32.816993-35.107993 0.317-1.707 7.899998-42.203991 7.899998-74.069984 0-31.889993-7.582998-72.410984-7.948998-74.117984-4.046999-21.551995-16.992996-35.424992-32.767993-35.059993h-3.291a98.400979 98.400979 0 0 1-98.254979-98.278978c0-17.846996 8.483998-37.449992 8.556999-37.619992a44.42199 44.42199 0 0 0-15.017997-53.710989l-0.927-0.683-96.133979-53.100988-0.975-0.415a44.88499 44.88499 0 0 0-17.846996-3.583999z m222.061952 705.339848a48.76199 48.76199 0 1 0-97.523979 0V774.022806c0 13.457997-10.873998 24.453995-24.307995 24.453995h-877.859811c-13.262997 0-24.306995-10.970998-24.306995-24.453995v-584.995874c0-13.457997 10.873998-24.453995 24.307995-24.453995h219.500953a48.76199 48.76199 0 1 0 0-97.523979H48.907989A48.76199 48.76199 0 0 0 0 115.809948V847.23779C0 874.177785 21.893995 895.99978 48.907989 895.99978h1023.706781a48.76199 48.76199 0 0 0 48.907989-48.76199v-268.189942zM219.427953-79.23701c0 26.940994 21.991995 48.76199 48.981989 48.761989h194.607959a48.76199 48.76199 0 1 0 0-97.523979H268.433942a48.76199 48.76199 0 0 0-49.005989 48.76199z"  horiz-adv-x="1169" />

    
    <glyph glyph-name="examine" unicode="&#58882;" d="M283.36 715.008c-28.16 0-50.88-22.656-50.88-50.88 0-28.16 22.72-50.88 50.88-50.88h446.016a50.88 50.88 0 0 1 0 101.76h-96.512V812.16a81.088 81.088 0 0 1-81.088 81.12h-89.504a81.088 81.088 0 0 1-81.088-81.12v-97.184H283.36v0.032z m223.008 132.64c29.6 0 53.76-24.096 53.76-53.728 0-29.6-24.128-53.728-53.76-53.728a53.824 53.824 0 0 0-53.696 53.728c0 29.632 24.128 53.728 53.696 53.728z m240.48-559.616a206.656 206.656 0 1 1 0-413.344 206.656 206.656 0 0 1 0 413.344zM891.04 55.04H746.848a26.24 26.24 0 0 0-26.336 26.304V220.032a26.272 26.272 0 1 0 52.608 0V107.68h117.92c14.624 0 26.336-11.744 26.336-26.336s-11.712-26.304-26.336-26.304z m-724-51.776V713.152a19.52 19.52 0 0 0 19.488 19.488h130.368V811.712H186.56a98.72 98.72 0 0 1-98.592-98.592v-709.888a98.72 98.72 0 0 1 98.592-98.56H506.4v79.072H186.56a19.584 19.584 0 0 0-19.52 19.52z m678.688 709.888v-397.248H924.8V713.152a98.688 98.688 0 0 1-98.528 98.592h-127.84v-79.104h127.84a19.52 19.52 0 0 0 19.456-19.488zM288.8 278.208a23.84 23.84 0 0 0-23.648 23.584c0 12.992 10.752 23.584 23.648 23.584h205.632c12.896 0 23.648-10.592 23.648-23.584a23.84 23.84 0 0 0-23.648-23.584H288.8z m0 96.64a23.84 23.84 0 0 0-23.648 23.616c0 12.96 10.752 23.584 23.648 23.584h423.392c12.832 0 23.584-10.656 23.584-23.584a23.872 23.872 0 0 0-23.584-23.616H288.8z m0 94.496a23.84 23.84 0 0 0-23.648 23.584c0 12.864 10.752 23.584 23.648 23.584h316.928c12.832 0 23.616-10.72 23.616-23.584a23.872 23.872 0 0 0-23.616-23.584H288.8z"  horiz-adv-x="1024" />

    
    <glyph glyph-name="order" unicode="&#58883;" d="M750.9-68.3c-41.678 0-75.674 35.43-75.674 78.95 0 43.417 33.996 78.745 75.673 78.745s75.674-35.328 75.674-78.745c0-43.52-33.997-78.95-75.674-78.95z m0 106.393c-13.722 0-24.474-12.083-24.474-27.546 0-15.462 10.752-27.75 24.473-27.75 13.312 0 24.474 12.697 24.474 27.75 0 14.95-11.162 27.546-24.474 27.546zM405.196-68.301c-42.087 0-75.367 34.611-75.674 78.746 0 43.622 33.997 78.95 75.674 78.95s75.673-35.328 75.673-78.745c0-43.52-33.996-78.95-75.673-78.95z m0 106.394c-13.722 0-24.474-12.083-24.474-27.546 0.103-15.36 10.855-27.75 24.474-27.75 13.517 0 24.473 12.39 24.473 27.75 0 15.258-10.956 27.546-24.473 27.546z m9.728 55.808c-61.235 0-109.363 48.435-125.85 126.157-2.97 14.028-19.149 100.761-38.093 201.83-26.93 143.462-63.692 339.968-67.481 354.509-1.946 3.891-9.421 8.499-14.541 8.499H85.3a25.6 25.6 0 0 0 0 51.2h83.66c26.112 0 52.02-17.818 62.874-43.315 5.12-18.637 33.177-167.936 69.427-361.472 18.841-100.66 35.02-186.88 37.888-200.704 10.752-51.2 37.171-82.74 71.168-85.3a21.709 21.709 0 0 0 4.505 0.41h417.076a25.6 25.6 0 0 0 0-51.2H420.25a22.938 22.938 0 0 0-5.325-0.614zM745.574 192.512H327.168a25.6 25.6 0 0 0 0 51.2h418.406c29.082 0 33.383 7.578 41.984 22.938l4.404 7.168c6.86 11.468 47.308 108.032 74.035 171.827 17.715 42.393 33.382 79.974 40.448 95.641 7.475 20.685 8.806 38.708 2.867 47.514-2.867 4.096-7.782 8.5-20.48 8.5H253.747a25.6 25.6 0 0 0 0 51.2h635.085c26.726 0 48.435-10.65 62.566-30.618 16.18-24.167 16.794-56.116 2.458-95.642-7.68-17.306-23.142-54.477-40.653-96.358-41.574-99.43-69.53-165.581-77.414-178.688l-4.403-7.168c-13.21-23.348-31.437-47.514-85.812-47.514zM533.094 284.16h-1.33a26.42 26.42 0 0 0-18.126 8.909L407.142 417.382a25.6 25.6 0 1 0 38.912 33.383L535.04 346.93l213.197 202.547a25.6 25.6 0 1 0 35.123-37.273l-232.653-220.98a25.6 25.6 0 0 0-17.613-7.065z"  horiz-adv-x="1024" />

    
    <glyph glyph-name="storage" unicode="&#58884;" d="M853.509-11.894H173.673c-53.805 0-97.578 43.773-97.578 97.577V553.668h60v-467.985c0-20.72 16.857-37.577 37.578-37.577h679.835c20.721 0 37.578 16.857 37.578 37.577V543.667c0 20.72-16.857 37.578-37.578 37.578H106.096v60h747.413c53.805 0 97.578-43.773 97.578-97.578v-457.983c0-53.804-43.774-97.578-97.578-97.578zM136.109 548.983h-60v148.67c0 38.9 31.647 70.547 70.547 70.547H376.42c38.9 0 70.547-31.647 70.547-70.547v-77.183h-60v77.183c0 5.815-4.731 10.547-10.547 10.547H146.656c-5.815 0-10.547-4.731-10.547-10.547v-148.67z m566.92-177.917l-39.189 4.808a154.624 154.624 0 0 1-12.301 30.607l24.328 31.13c5.875 7.52 4.322 19.362-3.16 26.845l-25.334 25.335c-7.484 7.483-19.328 9.037-26.846 3.16l-30.246-23.636a155.017 155.017 0 0 1-31.348 13.404l-4.672 38.078c-1.158 9.471-10.631 16.747-21.215 16.747h-35.83c-10.584 0-20.056-7.276-21.218-16.747l-4.561-37.198a154.982 154.982 0 0 1-32.318-13.15l-29.665 23.184c-7.519 5.877-19.363 4.324-26.846-3.161l-25.334-25.335c-7.483-7.483-9.037-19.325-3.161-26.845l23.008-29.438a155.082 155.082 0 0 1-13.37-32.228l-37.483-4.597c-9.473-1.161-16.748-10.633-16.748-21.215v-35.832c-0.001-10.583 7.275-20.053 16.748-21.216l37.78-4.633a155.019 155.019 0 0 1 13.195-31.446l-23.811-30.466c-5.876-7.52-4.322-19.362 3.161-26.843l25.335-25.338c7.484-7.485 19.326-9.036 26.845-3.158l30.884 24.136a155.414 155.414 0 0 1 30.537-12.503l4.841-39.479c1.162-9.474 10.633-16.75 21.217-16.75h35.83c10.584 0 20.055 7.276 21.219 16.75l4.877 39.779a155.152 155.152 0 0 1 29.76 12.317l31.904-24.934c7.521-5.878 19.363-4.322 26.844 3.162l25.338 25.332c7.486 7.487 9.037 19.328 3.16 26.847l-24.76 31.679a155.069 155.069 0 0 1 12.531 29.669l40.072 4.915c9.475 1.161 16.75 10.635 16.748 21.216l0.002 35.829c0.002 10.587-7.273 20.06-16.748 21.219z m-188.375-146.2c-59.401 0-107.553 48.152-107.553 107.551 0 59.397 48.151 107.548 107.553 107.548 59.398 0 107.547-48.15 107.547-107.548s-48.148-107.551-107.547-107.551zM468.702 331.266a45.948 45.948 0 1 1 91.896 0 45.948 45.948 0 1 1-91.896 0z"  horiz-adv-x="1024" />

    
    <glyph glyph-name="user" unicode="&#58885;" d="M460.8 332.8c-155.136 0-281.6 126.464-281.6 281.6S305.664 896 460.8 896s281.6-126.464 281.6-281.6c0-39.424-8.192-77.312-23.552-112.64-5.632-12.8-20.992-18.944-33.792-12.8-12.8 5.632-18.944 20.992-12.8 33.792 12.8 29.184 19.456 59.904 19.456 92.16 0 126.976-103.424 230.4-230.4 230.4s-230.4-103.424-230.4-230.4 103.424-230.4 230.4-230.4c14.336 0 25.6-11.264 25.6-25.6S475.136 332.8 460.8 332.8zM51.2-128H0c0 121.344 51.712 249.344 142.336 350.72C233.984 325.12 350.208 384 460.8 384v-51.2c-202.752 0-409.6-232.448-409.6-460.8zM829.952-128c-21.504 0-41.472 10.24-54.784 29.184l-19.456 28.16c-3.072 4.608-8.192 7.168-13.312 7.168s-10.24-2.56-13.824-7.168l-19.456-28.16c-18.432-26.624-50.688-35.84-80.896-23.552-30.208 12.288-47.104 42.496-41.472 74.24l5.632 33.28c1.536 8.192-3.072 13.312-5.12 15.36s-7.168 5.632-14.336 4.608l-33.792-6.144c-32.256-5.632-61.952 10.24-74.752 39.936-12.8 30.208-3.072 62.976 23.552 81.92l28.16 19.456c4.608 3.072 7.168 8.192 7.168 13.312s-2.56 10.24-7.168 13.824l-28.16 19.456c-26.624 18.432-35.84 51.2-23.552 80.896 12.288 30.208 41.984 46.592 74.24 40.96l33.28-6.144c7.68-1.536 13.312 3.072 14.848 4.608 2.048 2.048 5.632 7.168 4.096 14.336v0.512l-5.632 33.28c-5.632 31.744 10.24 61.44 39.936 74.24 30.208 12.8 62.976 3.072 81.92-23.552l19.456-28.16c3.072-4.608 8.192-7.168 13.312-7.168s10.24 2.56 13.824 7.168l19.456 28.16c18.432 26.624 51.2 36.352 80.896 23.552 30.208-12.288 46.08-42.496 40.448-74.752l-3.584-32.256c-1.536-8.192 3.072-13.312 5.12-15.36s7.168-5.632 14.336-4.608l33.792 6.144c32.256 5.632 62.464-10.24 74.752-39.936 12.8-30.208 3.072-62.976-23.552-81.92l-28.16-19.456c-4.608-3.072-7.168-8.192-7.168-13.312s2.56-10.24 7.168-13.824l28.16-19.456c27.136-18.944 36.864-52.224 24.064-82.432-12.8-29.696-42.496-45.568-74.752-39.424l-32.768 6.144c-7.68 1.536-13.312-3.072-14.848-4.608-2.048-2.048-5.632-7.168-4.096-14.336v-0.512l5.632-33.28c5.632-31.744-10.24-61.952-39.936-74.24-10.24-4.096-19.456-6.144-28.672-6.144zM742.4-12.288c22.016 0 43.008-10.752 55.296-29.184l19.456-28.16c7.168-10.24 16.896-6.656 19.968-5.632 3.584 1.536 11.776 6.144 9.728 18.432l-5.632 33.28c-4.096 21.504 2.56 44.032 17.92 59.392 15.872 15.872 38.4 23.04 60.416 19.456l33.28-6.144c11.776-2.048 16.384 5.632 17.92 9.216 1.024 3.072 4.608 12.8-6.144 20.48l-28.16 19.456c-18.432 12.8-29.184 33.792-29.184 55.808s10.752 43.008 29.184 55.296l28.16 19.456c10.24 7.168 7.168 16.896 5.632 19.968-1.536 3.584-6.144 11.776-18.432 9.728l-33.28-6.144c-21.504-4.096-43.52 2.56-59.392 17.92-15.872 15.872-23.552 38.4-19.456 60.416l5.632 33.28c2.048 12.288-6.144 16.896-9.728 18.432-3.584 1.536-12.8 4.096-19.456-5.632l-19.456-28.16c-12.8-18.432-33.792-29.184-55.808-29.184s-43.008 10.752-55.296 29.184l-19.456 28.16c-7.168 9.728-16.896 6.656-19.968 5.632-3.584-1.536-11.776-6.144-9.728-17.92l5.632-33.28c4.096-21.504-2.56-44.032-17.92-59.392-15.872-15.872-38.4-23.04-60.416-19.456l-33.28 6.144c-11.264 2.048-16.384-6.656-17.92-10.24-1.536-3.584-4.096-12.8 5.632-19.456l28.16-19.456c18.432-12.8 29.184-33.792 29.184-55.808s-10.752-43.008-29.184-55.296l-28.16-19.456c-10.24-7.168-7.168-16.896-5.632-19.968 1.536-3.584 6.144-11.776 18.432-9.728l33.28 6.144c21.504 4.096 43.52-2.56 59.392-17.92 15.872-15.872 23.552-38.4 19.456-60.416l-5.632-33.28c-2.048-12.288 7.168-17.408 10.24-18.432 3.584-1.536 12.8-4.096 19.456 5.632l19.456 28.16c12.8 17.92 33.28 28.672 55.808 28.672z m0.512 21.504c-79.36 0-143.872 65.024-143.872 144.384s64.512 144.384 143.872 144.384c79.36 0 143.872-65.024 143.872-144.384s-64.512-144.384-143.872-144.384z m0 237.568c-51.2 0-92.672-41.984-92.672-93.184s41.472-93.184 92.672-93.184 92.672 41.984 92.672 93.184-41.472 93.184-92.672 93.184z"  horiz-adv-x="1024" />

    
    <glyph glyph-name="juxing1" unicode="&#58891;" d="M808.96 680.96v-593.92H215.04V680.96h593.92m40.96 40.96H174.08v-675.84h675.84V721.92z"  horiz-adv-x="1024" />

    
    <glyph glyph-name="guidang" unicode="&#59523;" d="M896 320h-64v460.8a51.2 51.2 0 0 1-51.2 51.2H243.2a51.2 51.2 0 0 1-51.2-51.2v-460.8H128V793.6a102.4 102.4 0 0 0 102.4 102.4h563.2a102.4 102.4 0 0 0 102.4-102.4v-473.6z m-256-160V256H1024V-128H0v384h384v-96h256z m64 32v-96h-384V192h-256v-256h896v256h-256z m-384 512h384V640h-384V704z m0-192h384v-64h-384V512z"  horiz-adv-x="1024" />

    
    <glyph glyph-name="shachen" unicode="&#58917;" d="M1088.200847 230.297314H535.307315a42.893214 42.893214 0 0 1 0-85.786429h552.893532a93.507207 93.507207 0 1 0-56.619042-167.283536A42.893214 42.893214 0 1 1 979.252083-90.54393a178.435772 178.435772 0 0 1 287.813468 141.547608 179.293636 179.293636 0 0 1-178.864704 179.293636zM42.893214 538.270593h553.322465A178.864704 178.864704 0 1 1 486.837983 859.111836a42.893214 42.893214 0 0 1-7.720779-60.479433 42.893214 42.893214 0 0 1 60.0505-7.720778A94.365072 94.365072 0 0 0 596.215679 810.213571a93.078275 93.078275 0 0 0 0-186.15655H42.893214a42.893214 42.893214 0 0 1 0-85.786428zM1267.065551 515.537189a178.864704 178.864704 0 0 1-178.864704 178.864704 42.893214 42.893214 0 0 1 0-85.786429 93.078275 93.078275 0 0 0 0-186.15655H42.893214a42.893214 42.893214 0 0 1 0-85.786429h1045.307633a178.864704 178.864704 0 0 1 178.864704 178.864704zM239.773068 825.655129m-33.027775 0a33.027775 33.027775 0 1 1 66.05555 0 33.027775 33.027775 0 1 1-66.05555 0ZM929.067022 581.163807m-33.027775 0a33.027775 33.027775 0 1 1 66.05555 0 33.027775 33.027775 0 1 1-66.05555 0ZM1125.946876 825.655129m-33.027775 0a33.027775 33.027775 0 1 1 66.05555 0 33.027775 33.027775 0 1 1-66.05555 0ZM338.427461 187.404099m-33.027775 0a33.027775 33.027775 0 1 1 66.05555 0 33.027775 33.027775 0 1 1-66.05555 0ZM535.307315 23.123088a33.027775 33.027775 0 1 1 32.598843-33.027775 32.598843 32.598843 0 0 1-32.598843 33.027775z"  horiz-adv-x="1267" />

    
    <glyph glyph-name="system" unicode="&#58898;" d="M64-12.8a12.8 12.8 0 0 1-12.8 12.8H64v-12.8z m0 12.8V832h704v-407.04h64V844.8a51.2 51.2 0 0 1-51.2 51.2H51.2a51.2 51.2 0 0 1-51.2-51.2v-857.6a51.2 51.2 0 0 1 51.2-51.2h168.32v64H64zM64 832H51.2A12.8 12.8 0 0 1 64 844.8V832z m704 12.8c0-7.04 5.76-12.8 12.8-12.8H768V844.8z m0 0c0-7.04 5.76-12.8 12.8-12.8H768V844.8z m0-419.84h64V844.8a51.2 51.2 0 0 1-51.2 51.2H51.2a51.2 51.2 0 0 1-51.2-51.2v-857.6a51.2 51.2 0 0 1 51.2-51.2h168.32v64H64V832h704v-407.04zM64 832H51.2A12.8 12.8 0 0 1 64 844.8V832z m0-844.8a12.8 12.8 0 0 1-12.8 12.8H64v-12.8zM874.368 208.768c69.504-20.224 117.568-78.336 117.632-145.92 0-84.608-76.608-153.408-170.88-153.408H500.736a197.12 197.12 0 0 0-197.376 196.8 196.992 196.992 0 0 0 204.8 196.608A203.648 203.648 0 0 0 671.488 384a206.336 206.336 0 0 0 202.88-175.232z m-53.248-235.392c58.88 0 106.88 40.128 106.88 89.472 0 43.52-37.12 80.512-88.128 88.128l-26.752 3.968-0.64 27.008A141.76 141.76 0 0 1 671.552 320a140.288 140.288 0 0 1-120.32-67.456l-11.008-17.92-20.864 3.008A132.928 132.928 0 0 1 367.36 106.24a132.992 132.992 0 0 1 132.864-132.8h320.96zM128 704h448v-64H128zM128 576h320v-64H128z"  horiz-adv-x="1024" />

    
    <glyph glyph-name="huizhiquyu" unicode="&#58979;" d="M387.2 6.4l464 492.8c16 16 28.8 32 44.8 48v128h57.6c12.8 0 22.4 9.6 22.4 22.4V870.4c0 12.8-9.6 22.4-22.4 22.4h-160c-12.8 3.2-25.6-9.6-25.6-22.4v-60.8h-108.8-3.2H224V870.4c0 12.8-9.6 25.6-22.4 25.6h-160C28.8 896 16 883.2 16 870.4v-172.8c0-12.8 9.6-22.4 22.4-22.4H96v-582.4H38.4c-12.8 0-22.4-9.6-22.4-22.4v-172.8c0-12.8 9.6-22.4 22.4-22.4h160c16-3.2 25.6 9.6 25.6 22.4v64h118.4c16 12.8 28.8 28.8 44.8 44.8zM812.8 848H928v-124.8h-115.2V848z m-211.2-86.4L140.8 268.8v172.8l3.2 3.2 3.2 3.2 291.2 313.6h163.2zM224 700.8V761.6h156.8l-236.8-252.8V675.2h57.6c12.8 0 22.4 12.8 22.4 25.6z m-163.2 22.4V848h115.2v-124.8H60.8z m118.4-803.2H60.8v124.8h115.2v-124.8z m12.8 172.8H140.8v115.2h3.2L665.6 761.6H768v-51.2L192 92.8z m32-86.4v51.2L800 675.2h48v-108.8L323.2 6.4H224zM998.4 320l-115.2 115.2c-6.4 6.4-12.8 9.6-22.4 9.6s-16-3.2-22.4-9.6L480 83.2c-3.2-3.2-6.4-9.6-9.6-16l-22.4-150.4-3.2-16v-3.2c0-3.2 3.2-9.6 9.6-9.6h3.2l163.2 28.8c6.4 0 12.8 3.2 16 9.6l358.4 352c16 12.8 16 32 3.2 41.6zM601.6-19.2l-73.6-12.8 9.6 76.8L864 361.6l64-60.8-326.4-320z m-112-89.6h400v-19.2H489.6v19.2z"  horiz-adv-x="1024" />

    
    <glyph glyph-name="jibennongtian" unicode="&#58976;" d="M205.4 685.7v-610.4h610.4V685.7H205.4z m568.9-569H246.9V644.2h527.5v-527.5z m0 0M501 285.1h19.1V247H501v38.1z m0 76.3h19.1v-38.1H501v38.1z m0 152.5h19.1v-38.1H501v38.1z m0 76.4h19.1v-38.1H501v38.1z m0-381.5h19.1v-38.1H501v38.1z m0 228.9h19.1v-38.1H501v38.1zM682.2 390h38.1v-19.1h-38.1V390z m-228.8 0h38.1v-19.1h-38.1V390z m76.3 0h38.1v-19.1h-38.1V390z m76.2 0H644v-19.1h-38.1V390zM377 390h38.1v-19.1H377V390z m-76.2 0h38.1v-19.1h-38.1V390z m83.4 38.5c46.1 0 83.4 37.4 83.4 83.4 0 46.1-37.4 83.4-83.4 83.4-46 0-83.4-37.4-83.4-83.4 0-46 37.4-83.4 83.4-83.4z m252.8 0c46.1 0 83.4 37.4 83.4 83.4 0 46.1-37.4 83.4-83.4 83.4-46.1 0-83.4-37.4-83.4-83.4-0.1-46 37.3-83.4 83.4-83.4zM384.2 169c46.1 0 83.4 37.4 83.4 83.4 0 46.1-37.4 83.4-83.4 83.4-46 0-83.4-37.3-83.4-83.4 0-46 37.4-83.4 83.4-83.4zM637 335.9c-46.1 0-83.4-37.4-83.4-83.4 0-46.1 37.4-83.4 83.4-83.4 46.1 0 83.4 37.4 83.4 83.4 0 46-37.4 83.4-83.4 83.4z m0 0"  horiz-adv-x="1024" />

    
    <glyph glyph-name="shachenbao" unicode="&#58912;" d="M664.51 419.05c-14.5 3.08-29 3.08-43.5 3.08H96.83c0 3.08-1.76 3.08-4.83 3.08-3.52 0-6.59 0-11.42-1.76C74.42 420.37 63 412.46 63 402.79c0-7.91 7.91-19.33 14.5-24.17 4.39-3.08 10.98-3.08 15.82-3.08h532.09c44.82 0 76.89-20.65 88.32-57.56 13.18-39.98-7.91-85.24-47.89-101.06-9.67-3.52-18.89-6.59-30.32-6.59-32.07 0-61.07 17.58-73.82 46.57-1.32 3.08-3.08 6.59-3.08 9.67-1.32 3.08-1.32 4.83-3.08 7.91-4.83 10.98-12.74 17.58-20.65 17.58-3.52 0-8.35-1.32-11.42-3.08-7.91-4.83-16.26-20.65-14.5-30.32 9.67-46.57 56.24-89.63 105.89-96.22 6.15 0 12.74-1.76 17.58-1.76 65.47 0 118.63 43.5 131.38 105.89 12.74 70.31-29 136.22-99.31 152.48z m-27.68 177.07c9.23 52.73-21.09 105.89-70.74 123.47-12.74 3.08-25.48 4.83-39.98 4.83-40.42 0-78.65-21.09-97.98-56.24-4.83-7.91-15.82-27.24 4.83-39.98 4.83-3.08 9.67-4.83 14.5-4.83 11.42 0 19.33 9.67 24.17 19.33 12.74 20.65 30.32 32.07 52.73 32.07h11.42c25.92-3.08 43.5-19.33 51.41-46.57 4.83-17.58 1.76-35.15-9.67-49.65-9.67-14.06-25.92-23.73-43.5-25.48-19.33-1.76-40.42-1.76-56.24-1.76H92.88c-3.08 0-7.91 0-12.74-3.08-6.15-3.08-15.82-12.74-15.82-20.65 0-7.91 7.91-17.58 14.5-22.41 4.83-3.08 9.67-3.08 14.5-3.08h420.05c67.66 0 112.48 35.59 123.46 94.03zM70.03 292.07c-4.83-4.83-6.59-10.98-6.59-17.58 0-25.48 22.41-25.48 36.91-25.48h254.84c32.07 0 57.56-22.41 62.39-54.48 3.08-32.07-14.5-59.32-46.57-68.98-4.83-1.76-9.67-1.76-14.5-1.76-19.33 0-38.23 9.67-49.65 25.48-1.76 1.76-3.08 4.83-4.83 6.59-1.76 1.76-3.08 4.83-4.83 6.59-6.15 7.91-14.06 12.74-20.65 12.74-4.83 0-9.67-1.76-12.74-6.59-7.91-6.59-10.98-24.17-7.91-32.07 14.5-36.91 55.8-64.15 99.3-64.15h7.91c60.63 4.83 105.89 56.24 104.13 115.56-1.76 61.07-50.09 107.65-108.97 108.97h-51.41c-13.18 1.76-64.15 1.76-75.57 1.76H95.07c-9.66-0.01-19.33-0.01-25.04-6.6zM757.03 120.76m-36.24 0a36.24 36.24 0 1 1 72.48 0 36.24 36.24 0 1 1-72.48 0ZM861.23 342.74m-40.77 0a40.77 40.77 0 1 1 81.54 0 40.77 40.77 0 1 1-81.54 0ZM793.27 528.48m-27.18 0a27.18 27.18 0 1 1 54.36 0 27.18 27.18 0 1 1-54.36 0ZM702.67 682.51m-36.24 0a36.24 36.24 0 1 1 72.48 0 36.24 36.24 0 1 1-72.48 0ZM648.31 474.12m-27.18 0a27.18 27.18 0 1 1 54.36 0 27.18 27.18 0 1 1-54.36 0ZM548.64 93.58m-18.12 0a18.12 18.12 0 1 1 36.24 0 18.12 18.12 0 1 1-36.24 0Z"  horiz-adv-x="1024" />

    
    <glyph glyph-name="yanse" unicode="&#58956;" d="M1027.675897 207.241846c-158.037333-220.947692-418.789744-312.372513-695.401025-243.817025-31.612718 7.614359-39.515897 30.483692-23.709539 114.294153 0 45.71241 7.903179 91.424821-15.806359 121.908513-31.586462 22.843077-71.102359 30.457436-110.618256 30.457436-55.322256 7.640615-86.908718 15.254974-102.741333 60.967385-15.806359 38.098051 0 327.653744 260.778666 457.176615 284.488205 137.137231 497.847795 45.686154 600.589128-15.228718 15.806359-15.254974 39.515897-7.614359 55.322257 7.614359 15.806359 15.228718 7.876923 38.071795-7.90318 53.300513-94.838154 60.967385-347.713641 182.875897-687.524102 22.869333C-7.509333 664.418462-15.412513 329.150359 8.270769 268.209231c31.612718-91.424821 118.547692-99.065436 165.940513-106.679795 23.735795 0 47.445333-7.614359 55.348513-7.614359v-53.326769c-7.903179-60.967385-23.709538-167.620923 86.908718-198.104616 71.154872-15.228718 142.257231-30.483692 205.482666-30.483692 229.165949 0 434.622359 106.679795 576.853334 297.143795 7.903179 15.228718 0 38.098051-15.780103 53.353026-15.806359 7.614359-39.515897 7.614359-55.322256-15.228718M387.597128 519.614359c0-45.71241 31.612718-76.196103 79.031795-76.196103 47.419077 0 79.031795 30.457436 79.031795 76.196103 0 45.71241-31.612718 76.196103-79.031795 76.196103-47.419077 0-79.031795-30.457436-79.031795-76.196103m-158.06359-152.392205c0-45.686154 31.638974-76.196103 79.031795-76.196103 47.419077 0 79.031795 30.483692 79.031795 76.196103s-31.612718 76.196103-79.031795 76.196102c-47.392821 0-79.031795-30.457436-79.031795-76.196102m553.196308 228.588308c0 45.71241-31.612718 76.196103-79.031795 76.196102-47.419077 0-79.031795-30.457436-79.031795-76.196102 0-45.71241 31.612718-76.196103 79.031795-76.196103 47.419077 0 79.031795 38.098051 79.031795 76.196103m-221.289025-518.117744c15.806359-7.614359 71.154872 15.228718 86.934974 30.457436L1090.953846 542.536205c15.780103 15.228718 15.780103 38.071795 0 53.300513a39.174564 39.174564 0 0 1-55.322256 0l-442.551795-434.281026c-15.806359-15.228718-31.612718-76.196103-31.612718-83.810461"  horiz-adv-x="1102" />

    
    <glyph glyph-name="moxingxunlian" unicode="&#58894;" d="M413.193 323.463L593.901-128 214.758 22.585 26.486 420.598z m34.502 7.007l177.416-449.606 111.466 117.73-170.57 433.124zM33.679 444.59l382.938-91.296 107.246 104.804-379.515 93.844z m724.528-139.996l-149.922 96.47 102.92-267.65zM209.768 564.256l276.595-74.31-270.12 171.87z m692.044-368.899l95.702 318.076-204.355-203.478-66.932-196.711 25.85-66.88zM661.497 404.356l112.82-76.115 94.48 94.48-112.82 76.115z m-142.65 94.48l112.74-76.062 94.48 94.507-112.74 76.169z m-140.128 91.96l112.819-76.142 94.48 94.507-112.819 76.01zM233.946 686.63l112.82-76.142 94.453 94.428L328.4 781.11zM775.35 519.43l112.82-76.115 94.4 94.4-112.819 76.116z m-142.676 94.48l112.766-76.194 94.481 94.507-112.793 76.062z m-140.128 91.774l112.819-76.142 94.48 94.508L586.975 800.06zM347.614 801.52l112.82-76.141 94.454 94.48L442.175 896z"  horiz-adv-x="1024" />

    
    <glyph glyph-name="gongju" unicode="&#58907;" d="M520.549 271.792l47.745-48.45-30.655-31.885s-22.395-24.53 6.78-55.805l240.204-248.354s22.985-21.465 48.335-3.065l120.25 121.42s21.22 29.43-7.08 56.415l-238.13 245.284s-25.94 26.37-54.82 3.68l-31.24-33.11-50.1 51.51-51.289-57.64z m-33.01 142.877L229.952 678.968V760.53L77.875 854.353 2.62 778.315 94.38 626.23l80.75-0.608L429.182 365.61l58.357 49.06v-0.001zM71.98-29.918s0 40.475 40.67 40.475c0 0 36.547-1.23 37.725-40.475 0 0-1.177-36.79-39.197-39.245l-33.892-34.955s49.515-47.835 105.512 0l459.176 512.036s50.105-34.947 125.555-34.337c0 0 92.155-3.68 164.455 61.732 0 0 141.08 115.082 68.775 295.164L836.493 565.321 697.378 708.406 861.643 871.93S757.118 935.707 615.649 843.313c0 0-73.095-53.142-95.105-148.807 0 0-33.002-113.65 40.875-215.857L45.062 37.942s-32.222-32.7-16.505-80.94l43.423 13.08z m0 0s3.14-38.43 39.2-39.245l-33.892-34.955s-44.572 39.81-48.725 61.12l43.42 13.08h-0.003z"  horiz-adv-x="1024" />

    
    <glyph glyph-name="chengshi" unicode="&#59048;" d="M83.2-44.8h856v832c0 14.4-11.2 25.6-25.6 25.6H512c-14.4 0-25.6-11.2-25.6-25.6v-377.6H108.8c-14.4 0-25.6-11.2-25.6-25.6v-428.8z m320 537.6V787.2c0 59.2 48 108.8 108.8 108.8h403.2C974.4 896 1024 846.4 1024 787.2v-840c0-41.6-33.6-75.2-75.2-75.2H75.2C33.6-128 0-94.4 0-52.8V384c0 60.8 49.6 108.8 108.8 108.8h294.4zM403.2 518.4h83.2v-604.8h-83.2V518.4z m377.6 108.8c22.4 0 41.6-19.2 41.6-41.6 0-22.4-19.2-41.6-41.6-41.6h-134.4c-22.4 0-41.6 19.2-41.6 41.6 0 22.4 19.2 41.6 41.6 41.6h134.4z m0-201.6c22.4 0 41.6-19.2 41.6-41.6s-19.2-41.6-41.6-41.6h-134.4c-22.4 0-41.6 19.2-41.6 41.6s19.2 41.6 41.6 41.6h134.4z m0-201.6c22.4 0 41.6-19.2 41.6-41.6 0-22.4-19.2-41.6-41.6-41.6h-134.4c-22.4 0-41.6 19.2-41.6 41.6 0 22.4 19.2 41.6 41.6 41.6h134.4z"  horiz-adv-x="1024" />

    
    <glyph glyph-name="biaozhudian" unicode="&#59003;" d="M512 8.533333a375.9104 375.9104 0 0 0-375.466667 375.466667 375.9104 375.9104 0 0 0 375.466667 375.466667 375.9104 375.9104 0 0 0 375.466667-375.466667 375.9104 375.9104 0 0 0-375.466667-375.466667z m0 682.666667a307.575467 307.575467 0 0 1-307.2-307.2 307.575467 307.575467 0 0 1 307.2-307.2 307.575467 307.575467 0 0 1 307.2 307.2 307.575467 307.575467 0 0 1-307.2 307.2zM512 384m-170.666667 0a170.666667 170.666667 0 1 1 341.333334 0 170.666667 170.666667 0 1 1-341.333334 0Z"  horiz-adv-x="1024" />

    
    <glyph glyph-name="biaozhuxian" unicode="&#59004;" d="M111.991467 136.8064a44.578133 44.578133 0 0 0-38.229334 20.2752 36.1472 36.1472 0 0 0 1.1264 40.004267l218.112 315.153066a43.963733 43.963733 0 0 0 29.047467 17.885867 47.274667 47.274667 0 0 0 34.133333-7.236267l311.057067-210.773333 192.8192 278.903467a46.523733 46.523733 0 0 0 60.2112 12.5952 37.307733 37.307733 0 0 0 13.960533-54.3744l-218.112-315.153067a43.963733 43.963733 0 0 0-29.047466-17.885867 47.274667 47.274667 0 0 0-34.133334 7.2704l-311.022933 210.773334-192.8192-278.903467a44.885333 44.885333 0 0 0-37.102933-18.5344z"  horiz-adv-x="1024" />

    
    <glyph glyph-name="biaozhumian" unicode="&#59005;" d="M724.104533 31.300267h-414.1056a45.1584 45.1584 0 0 0-43.349333 31.573333l-127.7952 393.4208a45.431467 45.431467 0 0 0 16.554667 51.2l335.121066 243.5072 0.2048 0.2048a45.704533 45.704533 0 0 0 50.926934 1.160533l1.160533-0.682666 1.058133-0.750934 335.325867-243.6096 0.273067-0.2048a45.738667 45.738667 0 0 0 16.2816-49.595733l-0.273067-0.853333-128.273067-394.274134-0.2048-0.477866a45.3632 45.3632 0 0 0-42.9056-30.6176z m-387.7888 81.749333h361.540267l111.7184 343.7568-292.420267 212.514133-292.420266-212.514133z"  horiz-adv-x="1024" />

    
    <glyph glyph-name="taifeng" unicode="&#58916;" d="M414.4 684.8c32 10.5 64.6 16.8 97.2 19 67.6 7.5 135.1-6.2 191.7-41.5 26.1-14.5 50-32.6 71.1-53.7 138-138 125.8-373.8-27.2-526.7-107.5-107.6-256-145.6-382.7-110.7 84.8 2.7 171.8 38.6 239.9 106.7 1.7 1.7 3.5 3.5 5.2 5.3-32-10.5-64.6-16.8-97.2-19-67.6-7.4-135.1 6.2-191.7 41.5-26.1 14.5-50 32.6-71.1 53.7-138 138-125.8 373.8 27.2 526.7 107.5 107.6 256 145.6 382.7 110.7-84.8-2.7-171.8-38.6-239.9-106.7-1.7-1.8-3.5-3.5-5.2-5.3z m-0.8-209c-54.5-54.5-54.5-142.9 0-197.5 54.5-54.5 142.9-54.5 197.5 0 54.5 54.5 54.5 142.9 0 197.5-54.5 54.5-142.9 54.5-197.5 0z m0 0"  horiz-adv-x="1024" />

    
    <glyph glyph-name="json" unicode="&#60790;" d="M384 705.024V768h-5.76c-20.032 0-39.424-3.968-58.176-11.84a149.12 149.12 0 0 1-49.6-33.92 142.72 142.72 0 0 1-31.552-48.192v-0.064a226.688 226.688 0 0 1-12.672-53.12v-0.128a389.12 389.12 0 0 1-1.536-55.232c0.768-18.56 1.152-37.12 1.152-55.616 0-12.992-2.56-25.152-7.488-36.608v-0.064a96.256 96.256 0 0 0-48.96-50.368 88.064 88.064 0 0 0-35.712-7.36H128v-62.976h5.76c12.48 0 24.32-2.56 35.584-7.744l0.064-0.064c11.392-4.992 21.056-11.776 29.12-20.352l0.128-0.128c8.32-8.32 14.912-18.24 19.648-29.76l0.064-0.128c4.992-11.52 7.488-23.552 7.488-36.224 0-18.56-0.384-37.12-1.152-55.616-0.768-18.944-0.256-37.44 1.536-55.68v-0.064c2.112-18.112 6.336-35.712 12.608-52.736v-0.064c6.784-17.472 17.344-33.536 31.616-48.192 14.272-14.72 30.848-26.048 49.6-33.92 18.752-7.872 38.144-11.84 58.24-11.84H384v62.976h-5.76c-12.736 0-24.768 2.432-35.968 7.36a103.232 103.232 0 0 0-29.248 20.48 106.176 106.176 0 0 0-19.776 29.888c-4.736 11.52-7.04 23.68-7.04 36.672 0 14.592 0.192 28.992 0.704 43.008 0.512 14.592 0.512 28.8 0 42.56a296.896 296.896 0 0 1-3.52 40.96 171.648 171.648 0 0 1-10.752 38.976A146.176 146.176 0 0 1 225.408 384a146.176 146.176 0 0 1 47.232 61.12c5.12 12.288 8.64 25.152 10.752 38.528 2.112 13.44 3.264 27.072 3.52 40.96 0.512 14.08 0.512 28.288 0 42.624-0.512 14.336-0.768 28.8-0.768 43.392a94.08 94.08 0 0 0 56.128 86.656 85.12 85.12 0 0 0 36.032 7.744H384z m256-642.048V0h5.76c20.032 0 39.424 3.968 58.176 11.84 18.752 7.872 35.328 19.2 49.6 33.92 14.272 14.72 24.832 30.72 31.552 48.192v0.064c6.4 17.024 10.56 34.752 12.672 53.12v0.128c1.792 17.92 2.304 36.288 1.536 55.232-0.768 18.56-1.152 37.12-1.152 55.616 0 12.992 2.56 25.152 7.488 36.608v0.064a96.256 96.256 0 0 0 48.96 50.368c11.264 4.928 23.168 7.36 35.712 7.36H896v62.976h-5.76c-12.48 0-24.32 2.56-35.584 7.744l-0.064 0.064a88.064 88.064 0 0 0-29.12 20.352l-0.128 0.128a90.496 90.496 0 0 0-19.648 29.76l-0.064 0.128a89.92 89.92 0 0 0-7.488 36.224c0 18.56 0.384 37.12 1.152 55.616a396.16 396.16 0 0 1-1.536 55.68v0.064a226.688 226.688 0 0 1-12.608 52.736v0.064a142.72 142.72 0 0 1-31.616 48.192 149.12 149.12 0 0 1-49.6 33.92 148.8 148.8 0 0 1-58.24 11.84H640v-62.976h5.76c12.8 0 24.704-2.432 35.968-7.36 11.136-5.248 20.864-12.032 29.248-20.48 8.128-8.576 14.72-18.56 19.776-29.888 4.736-11.52 7.04-23.68 7.04-36.672 0-14.592-0.192-28.928-0.704-43.008-0.512-14.592-0.512-28.8 0-42.56 0.256-14.208 1.408-27.84 3.52-40.96 2.112-13.696 5.696-26.624 10.752-38.976a146.048 146.048 0 0 1 47.232-61.12 146.048 146.048 0 0 1-47.232-61.12 172.8 172.8 0 0 1-10.752-38.528c-2.112-13.44-3.264-27.072-3.52-40.96-0.512-14.08-0.512-28.288 0-42.624 0.512-14.336 0.768-28.8 0.768-43.392a94.08 94.08 0 0 0-26.88-66.24 93.824 93.824 0 0 0-29.248-20.416 85.12 85.12 0 0 0-36.032-7.744H640z"  horiz-adv-x="1024" />

    
    <glyph glyph-name="sanwei" unicode="&#58897;" d="M512 742.4C314.09493333 742.4 153.6 581.90506667 153.6 384S314.09493333 25.600000000000023 512 25.600000000000023 870.4 186.09493333 870.4 384 709.90506667 742.4 512 742.4z m0-179.2c-23.58613333 0-46.62613333 2.048-68.94933333 6.00746667 20.95786667 84.13866667 52.46293333 128.37546667 68.94933333 128.37546666 16.4864 0 47.99146667-44.2368 68.94933333-128.37546666-22.3232-3.85706667-45.3632-6.00746667-68.94933333-6.00746667z m112.57173333 16.31573333c-10.92266667 44.57813333-25.46346667 82.09066667-42.496 109.90933334a313.1392 313.1392 0 0 0 135.20213334-68.88106667c-28.22826667-17.408-59.42613333-31.26613333-92.70613334-41.02826667z m-225.14346666 0A382.29333333 382.29333333 0 0 0 306.7904 620.544a312.69546667 312.69546667 0 0 0 135.13386667 68.8128c-17.06666667-27.7504-31.5392-65.26293333-42.496-109.84106667z m246.5792-173.12426666a862.85653333 862.85653333 0 0 1-12.32213334 129.1264 423.59466667 423.59466667 0 0 1 115.84853334 52.6336 311.9104 311.9104 0 0 0 74.9568-181.76h-178.51733334z m-446.464 0a312.25173333 312.25173333 0 0 0 74.752 181.69173333 423.15093333 423.15093333 0 0 1 116.05333333-52.49706667 865.00693333 865.00693333 0 0 1-12.35626667-129.19466666H199.50933333z m223.232 0c1.05813333 44.57813333 5.12 84.30933333 11.1616 118.95466666a446.3616 446.3616 0 0 1 156.16-0.06826666c5.97333333-34.64533333 9.96693333-74.41066667 11.09333333-118.8864h-178.3808z m326.7584-226.54293334a423.59466667 423.59466667 0 0 1-115.84853334 52.6336 864.93866667 864.93866667 0 0 1 12.288 129.1264h178.51733334a311.9104 311.9104 0 0 0-74.9568-181.76z m-315.5968 62.80533334a821.17973333 821.17973333 0 0 0-11.12746667 118.95466666h178.31253333a799.1296 799.1296 0 0 0-11.12746666-118.8864 445.47413333 445.47413333 0 0 1-156.09173334-0.06826666zM274.36373333 179.88266667000005a311.73973333 311.73973333 0 0 0-74.78613333 181.69173333h178.4832c1.024-46.01173333 5.35893333-89.53173333 12.288-129.19466667-42.05226667-12.01493333-81.16906667-29.696-115.98506667-52.49706666zM512 70.38293333000001c-16.4864 0-47.99146667 44.27093333-68.94933333 128.4096A406.4256 406.4256 0 0 0 512 204.79999999999995c23.58613333 0 46.62613333-2.1504 68.94933333-6.00746667-20.95786667-84.13866667-52.46293333-128.4096-68.94933333-128.4096z m70.07573333 8.192c17.06666667 27.81866667 31.60746667 65.3312 42.496 109.90933334 33.34826667-9.76213333 64.47786667-23.62026667 92.70613334-40.96a312.38826667 312.38826667 0 0 0-135.168-68.94933334z m-140.15146666 0a312.69546667 312.69546667 0 0 0-135.13386667 68.77866667c28.16 17.44213333 59.2896 31.30026667 92.63786667 41.0624 10.9568-44.50986667 25.46346667-82.0224 42.496-109.84106667z"  horiz-adv-x="1024" />

    
    <glyph glyph-name="zaihaiyujing" unicode="&#59185;" d="M768.213 191.85h128.064v-192.085h-767.68V191.851h127.787V576.128C256.384 717.44 370.944 832 512.32 832c141.333 0 255.893-114.56 255.893-255.872v-384.277h-0.021z m-575.872-63.829v-64.213h640.043V128H704.171V576.128C704.17 682.069 618.24 768 512.277 768a191.85 191.85 0 0 1-191.893-191.787V128H192.341zM683.2 616.171v-64a85.568 85.568 0 0 1 0-171.158v-64a149.568 149.568 0 0 0 0 299.136z m170.88-187.03l97.13-97.152a32 32 0 1 0-45.247-45.226l-97.131 97.13a32 32 0 0 0 45.248 45.248z m-45.248 104.107l97.13 97.152a32 32 0 1 0 45.227-45.248L854.08 488a32 32 0 0 0-45.248 45.227zM119.04 286.72h-0.021a32 32 0 1 0-45.227 45.227l97.152 97.173a32 32 0 0 0 45.248-45.248L119.04 286.72zM73.792 585.152a31.979 31.979 0 0 0 45.227 45.227l97.173-97.131A32 32 0 1 0 170.944 488l-97.152 97.152z"  horiz-adv-x="1024" />

    
    <glyph glyph-name="gold" unicode="&#58910;" d="M342 424h342c0.4 0 0.9 0 1.3 0.1 4.4 0.7 7.3 4.8 6.6 9.2l-40.2 248c-0.6 3.9-4 6.7-7.9 6.7H382.2c-3.9 0-7.3-2.8-7.9-6.7l-40.2-248c-0.1-0.4-0.1-0.9-0.1-1.3 0-4.4 3.6-8 8-8z m91.2 196h159.5l20.7-128h-201l20.8 128z m2.5-282.7c-0.6 3.9-4 6.7-7.9 6.7H166.2c-3.9 0-7.3-2.8-7.9-6.7l-40.2-248c-0.1-0.4-0.1-0.9-0.1-1.3 0-4.4 3.6-8 8-8h342c0.4 0 0.9 0 1.3 0.1 4.4 0.7 7.3 4.8 6.6 9.2l-40.2 248zM196.5 148l20.7 128h159.5l20.7-128H196.5z m709.4-58.7l-40.2 248c-0.6 3.9-4 6.7-7.9 6.7H596.2c-3.9 0-7.3-2.8-7.9-6.7l-40.2-248c-0.1-0.4-0.1-0.9-0.1-1.3 0-4.4 3.6-8 8-8h342c0.4 0 0.9 0 1.3 0.1 4.3 0.7 7.3 4.8 6.6 9.2zM626.5 148l20.7 128h159.5l20.7-128H626.5z"  horiz-adv-x="1024" />

    
    <glyph glyph-name="gold-copy" unicode="&#60791;" d="M294.22345439 435.24154014h438.11516823c0.51241541 0 1.15293465 0 1.66535005 0.12810386 5.63656942 0.89672697 9.35158108 6.14898482 8.45485413 11.78555424l-51.49774786 317.69754888c-0.76862311 4.99605015-5.12415401 8.58295797-10.12020417 8.58295798H345.72120223c-4.99605015 0-9.35158108-3.58690782-10.12020418-8.58295798l-51.49774784-317.69754888c-0.12810386-0.51241541-0.12810386-1.15293465-0.12810386-1.66535007 0-5.63656942 4.61173863-10.24830803 10.24830804-10.24830803z m116.83071152 251.08354671h204.32564134l26.51749702-163.97292846h-257.48873923l26.64560087 163.97292846z m3.20259625-362.14958497c-0.76862311 4.99605015-5.12415401 8.58295797-10.12020416 8.58295798H69.01688546c-4.99605015 0-9.35158108-3.58690782-10.12020418-8.58295798l-51.49774785-317.6975489c-0.12810386-0.51241541-0.12810386-1.15293465-0.12810386-1.66535005 0-5.63656942 4.61173863-10.24830803 10.24830805-10.24830803h438.11516823c0.51241541 0 1.15293465 0 1.66535005 0.12810385 5.63656942 0.89672697 9.35158108 6.14898482 8.45485412 11.78555423l-51.49774786 317.6975489zM107.8323521 81.67491314999995l26.51749704 163.97292846h204.32564132l26.51749704-163.97292846H107.8323521z m908.76871447-75.19696017l-51.49774785 317.6975489c-0.76862311 4.99605015-5.12415401 8.58295797-10.12020418 8.58295798H619.863442c-4.99605015 0-9.35158108-3.58690782-10.12020416-8.58295798l-51.49774786-317.6975489c-0.12810386-0.51241541-0.12810386-1.15293465-0.12810385-1.66535005 0-5.63656942 4.61173863-10.24830803 10.24830802-10.24830803h438.11516823c0.51241541 0 1.15293465 0 1.66535005 0.12810385 5.50846557 0.89672697 9.35158108 6.14898482 8.45485414 11.78555423zM658.67890866 81.67491314999995l26.51749702 163.97292846h204.32564134l26.51749702-163.97292846H658.67890866z"  horiz-adv-x="1024" />

    
    <glyph glyph-name="sousuo1" unicode="&#58918;" d="M222.6944 673.2032A323.1488 323.1488 0 0 1 133.6832 384c19.2512 87.3728 64.512 172.7488 135.0144 243.3024C339.2512 697.8815999999999 424.6272 743.1168 512 762.3679999999999c-101.632 19.1488-210.688-10.5216-289.3056-89.1648zM989.44 73.88160000000005l-121.7024 121.7024a118.016 118.016 0 0 1-92.8 34.1248c114.4576 165.5552 97.92 394.3936-49.4848 541.824-165.9392 165.9904-435.0464 165.9904-601.0368 0-165.9392-165.9904-165.9392-435.1232 0-601.1136 147.4048-147.4304 376.064-163.84 541.7216-49.3824-2.56-33.28 8.8576-67.5328 34.1248-92.8l121.7024-121.728c46.08-45.9776 121.3696-45.9776 167.3472 0 46.208 45.9776 46.208 121.2928 0.128 167.3728zM676.096 219.904c-138.6752-138.6752-363.392-138.6752-502.016 0-138.6752 138.6752-138.6752 363.4432 0 502.1184 138.624 138.6752 363.3408 138.6752 502.016 0 138.6496-138.5728 138.6496-363.4432 0-502.1184z"  horiz-adv-x="1024" />

    
    <glyph glyph-name="ziyuanmulu" unicode="&#59085;" d="M512 588.8h307.2v-51.2h-307.2V588.8z m0-358.4h307.2v-51.2h-307.2v51.2zM332.8 486.4a76.8 76.8 0 1 1 0 153.6 76.8 76.8 0 0 1 0-153.6z m0-51.2a128 128 0 1 0 0 256 128 128 0 0 0 0-256z m0-307.2a76.8 76.8 0 1 1 0 153.6 76.8 76.8 0 0 1 0-153.6z m0-51.2a128 128 0 1 0 0 256 128 128 0 0 0 0-256zM102.4 844.8v-921.6h819.2V844.8H102.4zM51.2 896h921.6v-1024H51.2V896z"  horiz-adv-x="1024" />

    
    <glyph glyph-name="toolbar-list" unicode="&#58920;" d="M512 782.222222h455.111111v-102.4H512zM512 543.2888889999999h284.444444V440.888889H512zM512 327.11111100000005h455.111111v-102.4H512zM512 88.17777799999999h455.111111V-14.222221999999988H512zM56.888889 440.888889h341.333333V782.222222H56.888889v-341.333333z m102.4 238.933333h136.533333v-136.533333H159.288889V679.822222zM56.888889-14.222221999999988h341.333333v341.333333H56.888889v-341.333333z m102.4 238.933333h136.533333v-136.533333H159.288889v136.533333z"  horiz-adv-x="1024" />

    
    <glyph glyph-name="sousuotiaojian" unicode="&#58921;" d="M604.672-54.784H194.56c-40.448 0-73.728 32.768-73.728 73.216V748.544c0 40.448 33.28 73.216 73.728 73.216h629.76c40.448 0 73.728-32.768 73.728-73.216v-364.032h0.512c0-20.48 16.896-36.864 36.864-36.864 20.48 0 36.864 16.384 36.864 36.864V749.568c0.512 80.384-31.744 146.432-112.64 146.432H198.656C117.76 896 51.2 829.952 51.2 749.568v-731.136c0-80.384 66.56-146.432 147.456-146.432H604.16c20.48 0 36.864 16.384 36.864 36.864 0 19.968-15.872 36.352-36.352 36.352m55.296 138.24c-59.904 0-109.056 49.664-109.056 110.592 0 60.928 49.152 110.592 109.056 110.592s109.056-49.664 109.056-110.592c0-60.928-48.64-110.592-109.056-110.592z m155.648 0.512c-2.048 2.56-4.608 4.608-7.68 6.144 20.992 30.72 32.256 67.072 31.744 103.936 0 100.864-80.384 182.784-179.712 182.784-99.328 0-179.712-81.92-179.712-182.784s80.384-182.784 179.712-182.784c36.352 0 70.144 10.752 98.816 29.696 1.536-3.584 3.584-6.656 6.656-9.216l92.672-95.232c13.824-14.336 36.352-14.336 50.688 0 13.824 14.336 13.824 37.376 0 52.224l-93.184 95.232zM303.616 460.8c-19.968-0.512-35.84-16.896-35.84-36.864 0-19.968 15.872-36.352 35.84-36.864h212.48c19.456 0 35.84 16.384 35.84 36.864 0 19.968-15.872 36.352-35.84 36.864H303.616z m491.008 182.784c0 19.968-15.872 36.352-35.84 36.864H303.616c-19.968-0.512-35.84-16.896-35.84-36.864 0-19.968 15.872-36.352 35.84-36.864h455.168c19.968 0.512 35.84 16.896 35.84 36.864z"  horiz-adv-x="1024" />

    
    <glyph glyph-name="_fuzhi" unicode="&#58922;" d="M38.08183078 384h379.13453536v379.13453535h-379.13453536v-379.13453535z m0-473.91816922h379.13453536v379.13453536h-379.13453536v-379.13453536z m473.91816922 0h379.13453535v379.13453536h-379.13453535v-379.13453536z m457.66277598 681.25736826L701.56726765 859.43470731l-268.09550827-268.09550827L701.56726765 323.24369071l268.09550833 268.09550833zM701.56726765 725.41064908l134.02405826-134.02405824L701.56726765 457.31514076l-134.02405821 134.02405828L701.56726765 725.41064908z"  horiz-adv-x="1024" />

    
    <glyph glyph-name="baocun" unicode="&#58923;" d="M877.714286-128H146.285714a146.285714 146.285714 0 0 0-146.285714 146.285714V749.714286a146.285714 146.285714 0 0 0 146.285714 146.285714h731.428572a146.285714 146.285714 0 0 0 146.285714-146.285714v-731.428572a146.285714 146.285714 0 0 0-146.285714-146.285714zM682.642286 298.642286A170.861714 170.861714 0 0 1 512 128a170.788571 170.788571 0 0 1 170.569143-170.569143 170.861714 170.861714 0 0 1 170.715428 170.569143 170.934857 170.934857 0 0 1-170.642285 170.642286z m-512 426.642285v-256h512v256z"  horiz-adv-x="1024" />

    
    <glyph glyph-name="ccgl-yundandayinquyu-7" unicode="&#58924;" d="M924.085 654.614c-8.356-10.897-20.553-9.35-26 2.407-6.509 14.024-20.603 13.741-31.733 13.614-13.935-0.163-19.796 6.743-25.999 15.659-7.228 10.426-14.691 20.708-21.954 31.137-6.638 9.497-15.014 15.411-27.87 13.307-2.462-0.393-5.198 0-6.364 2.841h-9.385c-4.515-5.789-11.365-5.001-17.785-6.294-8.612-1.724-20.392-9.53-14.423-15.478 10.051-10.013 3.616-16.092 0.668-24.077-1.995-5.395-5.051-10.822-5.342-16.324-0.846-16.074-6.256-21.54-22.942-20.371-2.947 0.197-6.253 2.354-7.782-1.242-4.516-10.697-10.538-21.068-10.342-33.047 0.086-5.823 3.234-7.763 8.993-4.705 8.593 4.601 18.516 1.793 28.006 5.211 10.505 3.791 17.986-6.505 23.863-14.274 3.361-4.423-0.519-5.788-4.838-5.861-19.976-0.36-34.832-8.56-44.553-25.387-2.412-4.173-6.435-7.682-12.678-7.136-2.785 0.249-6.923 1.274-8.018-2.444-4.62-15.805-14.975-12.249-26.091-7.498-4.423 1.905-9.474 2.588-12.713-1.694-2.894-3.811-4.942-8.483-2.515-13.342 1.923-3.845 4.422-7.404 6.814-11.362-4.601-2.768-10.515-2.393-13.323-7.156-9.494-16.147-25.121-19.67-42.899-18.605-8.921 0.521-18.381 0.698-25.269-4.947-16.374-13.447-33.098-8.234-50.052-2.373-13.597 4.711-24.097 16.902-41.176 13.432-18.144-3.687-35.513 3.286-53.203 5.737-2.662 0.375-4.513 0.717-5.485 3.813-4.705 14.937-13.881 26.464-27.259 36.044-8.61 6.171-16.179 10.897-27.491 10.737-19.238-0.289-21.231 3.485-12.64 20.17 7.609 14.76-0.396 35.328-16.593 41.892-7.465 3.023-12.066 8.884-12.373 15.574-0.572 12.565-13.685 9.24-14.905 7.408-5.158-7.716-13.483-8.22-20.549-11.692-2.249-1.112-3.582-4.62-4.549-7.3-6.478-17.509-6.674-18.034-24.741-9.025-8.668 4.317-13.293 4.188-17.355-5.072-6.761-15.352-14.872-29.557-37.327-22.761-4.009 1.225-11.668 0.757-10.553-4.927 3.159-16.289 1.346-29.558-9.891-43.903-5.341-6.834-8.202-9.569-16.418-10.463-16.597-1.782-34.36-0.452-47.752-13.162-2.464-2.339-6.512-2.229-8.51 0.033-9.22 10.412-19.597 2.807-28.462 0.794-8.845-2.017-10.482-11.979-13.735-19.563-1.491-3.452 0.738-4.37 2.498-5.575 14.634-10.033 15.555-22.368 1.583-35.314 9.779-0.5 15.968-8.163 15.048-13.825-2.287-14.005 8.543-18.211 16.595-23.751 6.043-4.134 7.68-8.34 9.961-14.633 3.149-8.701 5.791-15.786 4.804-25.893-1.419-14.582 1.169-14.813-9.942-21.232-0.434-0.25-0.683-0.736-1.025-1.112-3.182-3.633 0.302-29.274 5.407-30.511 15.607-3.776 17.552-29.952 40.204-21.562 3.003 1.137 3.042-3.233 4.64-4.869 15.915-16.434 31.339-33.298 49.014-48.115 11.546-9.635 25.963-11.58 40.112-11.436 10.793 0.113 16.956-2.195 18.374-12.617 9.569 1.543 10.128 14.851 21.075 14.51 12.787-0.4 31.45-15.661 34.395-29.257 1.222-5.645 4.534-5.212 8.667-5.678 17.711-2.018 29.382 10.279 42.957 17.166 10.554 5.342 19.345 6.925 29.216 0.92 5.573-3.384 9.963-6.532 15.159 1.222 4.601 6.869 10.283 7.696 11.648-2.482 0.525-3.917 3.31-5.861 5.448-8.557 7.431-9.402 5.453-31.141-3.846-38.369-10.79-8.378-17.964-17.797-13.538-32.47 12.046 5.105 22.903 7.571 22.817-10.878 0-1.996 1.583-6.884 6.796-6.649 3.023 0.143 4.672-1.37 3.436-4.679-2.213-5.86-11.669-12.958 3.233-16.053 7.175-1.493 10.067-12.75 20.029-8.452 3.903 1.689 6.993 1.617 8.617-2.498 1.563-4.048 4.113-8.018 8.721-6.202 5.501 2.154-0.414 7.156 1.221 11.217 1.815 4.462-3.869 12.263 3.038 14.207 9.33 2.59 20.356 4.889 29.233 2.551 5.9-1.565 10.755-1.522 15.088-0.495-19.096 29.063-30.298 63.43-30.298 100.388 0 103.816 87.187 187.958 194.763 187.958 33.817 0 65.608-8.346 93.318-22.981 8.724 12.066 16.721 24.814 33.262 29.382 4.767 1.328 4.817 4.456 4.817 7.984 0 3.305-2.374 4.023-5.14 4.010-15.266-0.144-32.329 7.19-42.953-10.915-3.888-6.616-10.716-3.417-10.483 2.14 0.465 12.1-6.334 12.606-15.554 11.883-5.264-0.395-9.368 1.402-9.892 6.979-0.249 2.662-1.38 6.363 2.715 7.44 21.706 5.645 30.249 23.557 40.78 39.428 3.487 5.252 8.467 6.979 12.978 4.692 3.835-1.94 7.41-6.401 3.743-12.186-2.285-3.635-3.957-8.023-4.366-12.21-0.523-5.23-1.224-14.148 1.203-15.212 6.163-2.715 8.771 3.955 11.797 8.504 2.982 4.547 6.792 8.74 12.188 11.005 20.787 8.735 30.636 26.825 41.645 43.867 2.858 4.423 4.169 8.956 10.803 3.095 6.617-5.862 16.259 1.94 15.139 3.811-5.214 8.61 3.008 9.496 6.474 11.758 7.911 5.143 11.541 13.379 21.886 18.052 15.335 6.905 3.902 22.387-0.053 33.713-4.030 11.492-2.108 18.716 11.72 18.808 5.773 0.018 7.965 3.253 11.098 6.183v68.164c-10.55-6.453-20.938-12.474-28.778-22.687v0zM746.658 383.79v-145.762h147.29c0.001 0 0.001 145.762-147.29 145.762v0zM717.187 354.644h-6.456c-2.89 0.375-5.767 0.862-8.774 0.862-3.002 0-5.791-0.717-8.754-0.862h-5.471v-0.558c-82.916-7.248-148.171-75.351-148.171-159.28 0-88.747 72.711-160.699 162.398-160.699 84.473 0 153.081 64.040 160.87 145.629h1.654v29.146h-147.294v145.762zM832.010 179.737c-7.626-64.721-62.59-115.137-130.030-115.137-72.678 0-131.583 58.289-131.583 130.207 0 67.063 51.458 121.652 117.335 128.77v-143.832l144.278-0.008zM832.010 179.737z"  horiz-adv-x="1024" />

    
    <glyph glyph-name="coordinate" unicode="&#59044;" d="M62.876538 833.38594h210.614835v-53.691853H62.876538zM115.398752 410.846438h158.092621v-53.69083H115.398752zM750.506581 410.846438h158.092621v-53.69083H750.506581zM750.506581 833.38594h210.614835v-53.691853H750.506581zM62.876538-11.167085000000043h210.614835v-53.691853H62.876538zM750.506581-11.167085000000043h210.614835v-53.691853H750.506581zM62.876538 779.695111h52.522214v-158.092621H62.876538zM485.738381 779.695111h52.522214v-158.092621h-52.522214zM908.599202 779.695111h52.522214v-158.092621h-52.522214zM62.876538 146.92656h52.522214v-158.092621H62.876538zM908.599202 146.92656h52.522214v-158.092621h-52.522214zM485.738381 146.92656h52.522214v-158.092621h-52.522214zM644.933103 433.323359c0-73.417103-106.672508-232.194316-132.933615-232.194316S379.065873 359.906256 379.065873 433.323359 438.582385 566.256974 511.999488 566.256974s132.933615-59.516512 132.933615-132.933615z"  horiz-adv-x="1024" />

    
    <glyph glyph-name="zirandiwu" unicode="&#59052;" d="M512-128c-56.096 89.344-97.184 137.728-123.296 145.184C201.216 70.752 64 243.328 64 448 64 695.424 264.576 896 512 896s448-200.576 448-448c0-203.168-135.232-374.72-320.608-429.632-26.88-7.968-69.376-56.768-127.392-146.368z m-8.096 813.44c-82.432 0-149.152-69.824-149.152-156.16 0-22.528 4.96-44.224 13.248-63.712a358.56 358.56 0 0 0 152.096-91.072c14.08 1.728 27.744 5.184 40.576 10.816a581.44 581.44 0 0 0 90.752 163.52c-8.704 77.184-71.68 136.576-147.52 136.576z m179.84 7.36l-23.616 91.52-89.088-15.648L503.904 832 436.8 768.672 347.712 784.32l-23.616-91.52-82.88-37.28 27.36-90.208-50.56-78.464 9.92-8.672a314.336 314.336 0 0 0 40.64 2.56c15.328 0 30.656-1.28 45.568-3.008a212.672 212.672 0 0 0-6.208 52.032c0 113.6 87.84 205.984 196.8 205.984 87.456 0 161.184-59.84 186.88-142.24a548.544 548.544 0 0 0 73.76 62.88l-81.6 36.448zM355.584 224a410.72 410.72 0 0 0 130.944 101.056c-55.936 67.2-137.984 109.696-229.568 109.696-33.984 0-66.304-6.496-96.96-16.896V224h195.584zM864 224V621.248c-133.44-49.024-238.688-161.76-281.344-303.584-66.304-12.992-125.12-46.4-171.968-93.664H864z"  horiz-adv-x="1024" />

    
    <glyph glyph-name="wenjian" unicode="&#58925;" d="M1042.432-54.272c0-40.813714-32.768-73.728-73.142857-73.728H55.003429l128 608.256c0 40.667429 32.621714 73.728 72.996571 73.728h841.289143c40.374857 0 72.996571-33.060571 72.996571-73.728l-127.853714-534.528zM201.289143 609.28H1024v72.411429c0 40.667429-32.768 73.728-73.142857 73.728H512.073143v66.852571c0 40.667429-32.768 73.728-73.142857 73.728H73.142857C32.768 896 0 862.939429 0 822.272v-876.544l127.853714 589.824A73.728 73.728 0 0 0 201.216 609.28z"  horiz-adv-x="1170" />

    
    <glyph glyph-name="huizhi" unicode="&#59604;" d="M341.505 100.38300000000004h-75.09c-6.828 17.75-21.847 31.403-38.23 38.231V628.7660000000001c17.75 6.828 31.402 21.848 38.23 38.231h487.422c10.922-25.942 36.863-43.692 65.535-43.692 39.598 0 71 31.403 71 71 0 39.594-31.402 70.996-71 70.996-30.035 0-55.976-17.75-65.535-43.691H266.415c-10.926 25.941-36.867 43.691-65.539 43.691-39.594 0-70.996-31.402-70.996-70.996 0-30.039 17.75-55.98 43.691-65.539v-490.152c-25.941-10.922-43.691-35.5-43.691-65.535 0-39.598 31.402-71 70.996-71 30.039 0 55.981 17.75 65.539 43.691h75.09c15.02 0 27.309 12.289 27.309 27.309 0 15.015-12.289 27.304-27.309 27.304z m0 0M413.868 64.88699999999994c-2.73-9.558 6.828-19.117 16.387-16.386l113.32 31.402-98.304 98.305-31.403-113.321z m419.16 451.922c-12.289 12.289-32.769 10.926-46.421-1.363l-47.789-47.789 95.574-95.571 47.785 47.786c13.656 13.652 13.656 34.132 1.367 46.422l-50.516 50.515zM478.04 212.34000000000003l92.844-98.304 236.203 230.742-95.574 95.574L478.04 212.34000000000003z m0 0"  horiz-adv-x="1024" />

    
    </font>
</defs>
</svg>
